×

¿Problemas para descargar con Mozilla, EDGE? Deshabilita la opción "Abrir vinculos en una pestaña nueva" tal como lo muestra ésta imagen.

James Bond: Otro Día para Morir (2002) REMUX 1080p Latino

432 vistas

Información de James Bond: Otro Día para Morir (2002) REMUX 1080p Latino

Datos de la película

  • Calidad: Full 1080p
  • Audio: Español Latino AC3 5.1 BLURAY - Ingles DTS 5.1 BLURAY
  • Subtitulos: Español Latino PGS - Ingles PGS
  • Resolución: 1920x1080p
  • Formato: MKV
  • Codec: H.264
  • Encoder: CinefiloCool
  • Mediainfo: Clic para Mostrar Datos Ver
  • Otro Dia Para Morir (2002) REMUX 1080p Latino-CMHDD.mkv
    Format                      : Matroska
    Format version              : Version 4
    File size                   : 22.9 GiB
    Duration                    : 2 h 12 min
    Overall bit rate mode       : Variable
    Overall bit rate            : 24.7 Mb/s
    Movie name                  : Die Another Day (2002) CinemaniaHDD.Net
    Encoded date                : UTC 2020-06-13 05:44:07
    Writing application         : mkvmerge v46.0.0 ('No Deeper Escape') 64-bit
    Writing library             : libebml v1.3.10 + libmatroska v1.5.2
    Attachments                 : CINEMANIAHD.png

    Video
    ID                          : 1
    Format                      : AVC
    Format/Info                 : Advanced Video Codec
    Format profile              : High@L4.1
    Format settings             : CABAC / 4 Ref Frames
    Format settings, CABAC      : Yes
    Format settings, Reference  : 4 frames
    Codec ID                    : V_MPEG4/ISO/AVC
    Duration                    : 2 h 12 min
    Bit rate mode               : Variable
    Bit rate                    : 21.9 Mb/s
    Maximum bit rate            : 37.0 Mb/s
    Width                       : 1 920 pixels
    Height                      : 1 080 pixels
    Display aspect ratio        : 16:9
    Frame rate mode             : Constant
    Frame rate                  : 23.976 (23976/1000) FPS
    Original frame rate         : 23.976 (24000/1001) FPS
    Color space                 : YUV
    Chroma subsampling          : 4:2:0
    Bit depth                   : 8 bits
    Scan type                   : Progressive
    Bits/(Pixel*Frame)          : 0.441
    Stream size                 : 20.3 GiB (89%)
    Title                       : REMUX 1080p [CinemaniaHDD]
    Language                    : English
    Default                     : Yes
    Forced                      : No
    Color range                 : Limited
    Color primaries             : BT.709
    Transfer characteristics    : BT.709
    Matrix coefficients         : BT.709

    Audio #1
    ID                          : 2
    Format                      : AC-3
    Format/Info                 : Audio Coding 3
    Commercial name             : Dolby Digital
    Codec ID                    : A_AC3
    Duration                    : 2 h 12 min
    Bit rate mode               : Constant
    Bit rate                    : 448 kb/s
    Channel(s)                  : 6 channels
    Channel layout              : L R C LFE Ls Rs
    Sampling rate               : 48.0 kHz
    Frame rate                  : 31.250 FPS (1536 SPF)
    Compression mode            : Lossy
    Stream size                 : 424 MiB (2%)
    Title                       : Español Latino [CinemaniaHDD]
    Language                    : Spanish
    Service kind                : Complete Main
    Default                     : Yes
    Forced                      : No

    Audio #2
    ID                          : 3
    Format                      : DTS XLL
    Format/Info                 : Digital Theater Systems
    Commercial name             : DTS-HD Master Audio
    Codec ID                    : A_DTS
    Duration                    : 2 h 12 min
    Bit rate mode               : Variable
    Bit rate                    : 2 334 kb/s
    Channel(s)                  : 6 channels
    Channel layout              : C L R Ls Rs LFE
    Sampling rate               : 48.0 kHz
    Frame rate                  : 93.750 FPS (512 SPF)
    Bit depth                   : 24 bits
    Compression mode            : Lossless
    Stream size                 : 2.16 GiB (9%)
    Title                       : Ingles [CinemaniaHDD]
    Language                    : English
    Default                     : No
    Forced                      : No

    Text #1
    ID                          : 4
    Format                      : PGS
    Muxing mode                 : zlib
    Codec ID                    : S_HDMV/PGS
    Codec ID/Info               : Picture based subtitle format used on BDs/HD-DVDs
    Duration                    : 2 h 8 min
    Bit rate                    : 347 b/s
    Count of elements           : 100
    Stream size                 : 327 KiB (0%)
    Title                       : Forzados-PGS [CinemaniaHDD]
    Language                    : Spanish
    Default                     : Yes
    Forced                      : Yes

    Text #2
    ID                          : 5
    Format                      : PGS
    Muxing mode                 : zlib
    Codec ID                    : S_HDMV/PGS
    Codec ID/Info               : Picture based subtitle format used on BDs/HD-DVDs
    Duration                    : 2 h 11 min
    Bit rate                    : 17.8 kb/s
    Count of elements           : 1666
    Stream size                 : 16.8 MiB (0%)
    Title                       : Español-PGS [CinemaniaHDD]
    Language                    : Spanish
    Default                     : No
    Forced                      : No

    Text #3
    ID                          : 6
    Format                      : PGS
    Muxing mode                 : zlib
    Codec ID                    : S_HDMV/PGS
    Codec ID/Info               : Picture based subtitle format used on BDs/HD-DVDs
    Duration                    : 2 h 5 min
    Bit rate                    : 19.5 kb/s
    Count of elements           : 1642
    Stream size                 : 17.5 MiB (0%)
    Title                       : Ingles-PGS [CinemaniaHDD]
    Language                    : English
    Default                     : No
    Forced                      : No

    Text #4
    ID                          : 7
    Format                      : UTF-8
    Codec ID                    : S_TEXT/UTF8
    Codec ID/Info               : UTF-8 Plain Text
    Duration                    : 2 h 11 min
    Bit rate                    : 0 b/s
    Count of elements           : 44
    Stream size                 : 928 Bytes (0%)
    Title                       : Forzados-SRT [CinemaniaHDD]
    Language                    : Spanish
    Default                     : No
    Forced                      : No

    Text #5
    ID                          : 8
    Format                      : UTF-8
    Codec ID                    : S_TEXT/UTF8
    Codec ID/Info               : UTF-8 Plain Text
    Duration                    : 2 h 11 min
    Bit rate                    : 28 b/s
    Count of elements           : 837
    Stream size                 : 27.4 KiB (0%)
    Title                       : Español-SRT [CinemaniaHDD]
    Language                    : Spanish
    Default                     : No
    Forced                      : No

    Menu
    00:00:00.000                : en:Chapter 1
    00:09:28.150                : en:Chapter 2
    00:13:15.961                : en:Chapter 3
    00:16:40.833                : en:Chapter 4
    00:22:19.796                : en:Chapter 5
    00:27:32.400                : en:Chapter 6
    00:30:59.607                : en:Chapter 7
    00:34:35.823                : en:Chapter 8
    00:39:46.842                : en:Chapter 9
    00:43:35.821                : en:Chapter 10
    00:48:40.917                : en:Chapter 11
    00:50:01.581                : en:Chapter 12
    00:52:21.888                : en:Chapter 13
    00:59:20.640                : en:Chapter 14
    01:00:13.276                : en:Chapter 15
    01:03:00.234                : en:Chapter 16
    01:08:23.432                : en:Chapter 17
    01:11:07.554                : en:Chapter 18
    01:13:52.219                : en:Chapter 19
    01:19:23.717                : en:Chapter 20
    01:21:33.304                : en:Chapter 21
    01:26:55.710                : en:Chapter 22
    01:31:25.771                : en:Chapter 23
    01:35:07.618                : en:Chapter 24
    01:39:53.570                : en:Chapter 25
    01:44:56.248                : en:Chapter 26
    01:49:43.117                : en:Chapter 27
    01:55:49.150                : en:Chapter 28
    02:01:52.388                : en:Chapter 29
    02:05:08.083                : en:Chapter 30
    02:06:58.694                : en:Chapter 31
    02:08:26.698                : en:Chapter 32

  • Peso: 22.9 GiB

Sinopsis

Descargar James Bond: Otro Día para Morir (2002) REMUX 1080p Latino. El agente 007 investiga secretamente los planes de Zao, el hijo del pacifista coronel Moon del ejército de Corea del Norte. El MI6 sospecha que Zao pueda tener planes ambiciosos que pongan en peligro la estabilidad mundial y esas sospechas se confirman cuando 007 descubre que Zao planea, efectivamente, unificar los ejércitos de las dos Coreas, atacar Japón y posteriormente, enfrentarse a los Estados Unidos. Antes de que pueda escapar Bond es descubierto por Zao quien le apresa y tortura. En su camino se cruza Jinx (Halle Berry) y Miranda Frost (Rosamund Pike), quienes jugarán papeles vitales en su última aventura.

Ficha técnica

Video trailer de la película

Enlaces de descarga

Rip de Bluray

Descargar James Bond: Otro Día para Morir (2002) REMUX 1080p Latino




Aportes de DPeliculasHDmega la pass es:dpeliculashdmega.org Aportes de CinemaniaHD la pass es:cinemaniahdd.com
Guardado en : Acción , Aventura , Remux , Suspenso

Películas relacionadas

  • DC Liga De Supermascotas (2022) HD 1080p Latino

    DC Liga De Supermascotas (2022) HD 1080p Latino

    2022
    DC Liga De Supermascotas (2022) HD 1080p Latino

    1h 45m 2022

    Descargar DC Liga De Supermascotas (2022) HD 1080p Latino. Krypto el Superperro y Superman son amigos...

    Director: Sam Levine

    Género: Acción

    Actores: Yvette Nicole Brown

  • Invitacion Al Infierno (2022) MA WEB-DL 1080p Latino

    Invitacion Al Infierno (2022) MA WEB-DL 1080p Latino

    2022
    Invitacion Al Infierno (2022) MA WEB-DL 1080p Latino

    1h 45m 2022

    Descargar Invitacion Al Infierno (2022) MA WEB-DL 1080p Latino. Tras la muerte de su madre y quedarse...

    Director: Jessica M. Thompson

    Género: Suspenso

    Actores: Virág Bárány

  • Tremors (1990) REMUX 4K HDR Latino – CMHDD

    Tremors (1990) REMUX 4K HDR Latino – CMHDD

    1990
    Tremors (1990) REMUX 4K HDR Latino – CMHDD

    1h 35m 1990

    En Perfección, un pequeño pueblo al borde del desierto de Nevada, algo parece suceder debajo de la...

    Director: Susan Bierbaum

    Género: Acción

    Actores: Victor Wong

descargar James Bond: Otro Día para Morir (2002) REMUX 1080p Latino Full 1080p 1080p gratis, James Bond: Otro Día para Morir (2002) REMUX 1080p Latino Full 1080p mega 1 link, James Bond: Otro Día para Morir (2002) REMUX 1080p Latino Full 1080p pelicula completa, descargar James Bond: Otro Día para Morir (2002) REMUX 1080p Latino Full 1080p gratis en mega.

James Bond: Otro Día para Morir (2002) REMUX 1080p Latino pelicula full hd, James Bond: Otro Día para Morir (2002) REMUX 1080p Latino mega latino, James Bond: Otro Día para Morir (2002) REMUX 1080p Latino 4k latino, James Bond: Otro Día para Morir (2002) REMUX 1080p Latino pelicula completa, James Bond: Otro Día para Morir (2002) REMUX 1080p Latino descargar gratis, descargar James Bond: Otro Día para Morir (2002) REMUX 1080p Latino pelicula latino, James Bond: Otro Día para Morir (2002) REMUX 1080p Latino 1 link mega, James Bond: Otro Día para Morir (2002) REMUX 1080p Latino 1 link google drive, James Bond: Otro Día para Morir (2002) REMUX 1080p Latino hd 1080p latino.
Comentarios 0