×

¿Problemas para descargar con Mozilla, EDGE? Deshabilita la opción "Abrir vinculos en una pestaña nueva" tal como lo muestra ésta imagen.

James Bond: Otro Día para Morir (2002) 1080p Latino

456 vistas

Información de James Bond: Otro Día para Morir (2002) 1080p Latino

Datos de la película

  • Calidad: 1080p
  • Audio: Español Latino AC3 5.1 BLURAY - Ingles AC3 5.1 BLURAY
  • Subtitulos: Español Latino SRT - Ingles SRT
  • Resolución: 1920x800p
  • Formato: MKV
  • Codec: H.264
  • Encoder: CinefiloCool
  • Mediainfo: Clic para Mostrar Datos Ver
  • Otro Dia Para Morir (2002) 1080p Latino-CMHDD.mkv
    Format                      : Matroska
    Format version              : Version 4
    File size                   : 4.80 GiB
    Duration                    : 2 h 12 min
    Overall bit rate mode       : Variable
    Overall bit rate            : 5 183 kb/s
    Movie name                  : Die Another Day (2002) CinemaniaHDD.Net
    Encoded date                : UTC 2020-06-13 05:55:01
    Writing application         : mkvmerge v46.0.0 ('No Deeper Escape') 64-bit
    Writing library             : libebml v1.3.10 + libmatroska v1.5.2
    Attachments                 : CINEMANIAHD.png

    Video
    ID                          : 1
    Format                      : AVC
    Format/Info                 : Advanced Video Codec
    Format profile              : High@L4
    Format settings             : CABAC / 3 Ref Frames
    Format settings, CABAC      : Yes
    Format settings, Reference  : 3 frames
    Codec ID                    : V_MPEG4/ISO/AVC
    Duration                    : 2 h 12 min
    Bit rate mode               : Variable
    Bit rate                    : 4 096 kb/s
    Width                       : 1 920 pixels
    Height                      : 800 pixels
    Display aspect ratio        : 2.40:1
    Frame rate mode             : Constant
    Frame rate                  : 23.976 (24000/1001) FPS
    Color space                 : YUV
    Chroma subsampling          : 4:2:0
    Bit depth                   : 8 bits
    Scan type                   : Progressive
    Bits/(Pixel*Frame)          : 0.111
    Stream size                 : 3.79 GiB (79%)
    Title                       : HD1080p [CinemaniaHDD]
    Writing library             : x264 core 142 r2479 dd79a61
    Encoding settings           : cabac=1 / ref=3 / deblock=1:0:0 / analyse=0x3:0x113 / me=hex / subme=7 / psy=1 / psy_rd=1.00:0.00 / mixed_ref=1 / me_range=16 / chroma_me=1 / trellis=1 / 8x8dct=1 / cqm=0 / deadzone=21,11 / fast_pskip=1 / chroma_qp_offset=-2 / threads=6 / lookahead_threads=1 / sliced_threads=0 / nr=0 / decimate=1 / interlaced=0 / bluray_compat=0 / constrained_intra=0 / bframes=3 / b_pyramid=0 / b_adapt=1 / b_bias=0 / direct=1 / weightb=1 / open_gop=0 / weightp=2 / keyint=240 / keyint_min=24 / scenecut=40 / intra_refresh=0 / rc_lookahead=40 / rc=2pass / mbtree=1 / bitrate=4096 / ratetol=1.0 / qcomp=0.60 / qpmin=0 / qpmax=69 / qpstep=4 / cplxblur=20.0 / qblur=0.5 / vbv_maxrate=25000 / vbv_bufsize=25000 / nal_hrd=vbr / filler=0 / ip_ratio=1.40 / aq=1:1.00
    Default                     : Yes
    Forced                      : No

    Audio #1
    ID                          : 2
    Format                      : AC-3
    Format/Info                 : Audio Coding 3
    Commercial name             : Dolby Digital
    Codec ID                    : A_AC3
    Duration                    : 2 h 12 min
    Bit rate mode               : Constant
    Bit rate                    : 448 kb/s
    Channel(s)                  : 6 channels
    Channel layout              : L R C LFE Ls Rs
    Sampling rate               : 48.0 kHz
    Frame rate                  : 31.250 FPS (1536 SPF)
    Compression mode            : Lossy
    Stream size                 : 424 MiB (9%)
    Title                       : Español Latino [CinemaniaHDD]
    Language                    : Spanish
    Service kind                : Complete Main
    Default                     : Yes
    Forced                      : No

    Audio #2
    ID                          : 3
    Format                      : AC-3
    Format/Info                 : Audio Coding 3
    Commercial name             : Dolby Digital
    Codec ID                    : A_AC3
    Duration                    : 2 h 12 min
    Bit rate mode               : Constant
    Bit rate                    : 640 kb/s
    Channel(s)                  : 6 channels
    Channel layout              : L R C LFE Ls Rs
    Sampling rate               : 48.0 kHz
    Frame rate                  : 31.250 FPS (1536 SPF)
    Compression mode            : Lossy
    Stream size                 : 607 MiB (12%)
    Title                       : Ingles [CinemaniaHDD]
    Language                    : English
    Service kind                : Complete Main
    Default                     : No
    Forced                      : No

    Text #1
    ID                          : 4
    Format                      : UTF-8
    Codec ID                    : S_TEXT/UTF8
    Codec ID/Info               : UTF-8 Plain Text
    Duration                    : 2 h 11 min
    Bit rate                    : 0 b/s
    Count of elements           : 44
    Stream size                 : 928 Bytes (0%)
    Title                       : Forzados-SRT [CinemaniaHDD]
    Language                    : Spanish
    Default                     : Yes
    Forced                      : No

    Text #2
    ID                          : 5
    Format                      : UTF-8
    Codec ID                    : S_TEXT/UTF8
    Codec ID/Info               : UTF-8 Plain Text
    Duration                    : 2 h 11 min
    Bit rate                    : 28 b/s
    Count of elements           : 837
    Stream size                 : 27.4 KiB (0%)
    Title                       : Español-SRT [CinemaniaHDD]
    Language                    : Spanish
    Default                     : No
    Forced                      : No

    Text #3
    ID                          : 6
    Format                      : UTF-8
    Codec ID                    : S_TEXT/UTF8
    Codec ID/Info               : UTF-8 Plain Text
    Duration                    : 2 h 5 min
    Bit rate                    : 31 b/s
    Count of elements           : 846
    Stream size                 : 28.7 KiB (0%)
    Title                       : Ingles-SRT [CinemaniaHDD]
    Language                    : English
    Default                     : No
    Forced                      : No

    Menu
    00:00:00.000                : en:Chapter 1
    00:09:28.150                : en:Chapter 2
    00:13:15.961                : en:Chapter 3
    00:16:40.833                : en:Chapter 4
    00:22:19.796                : en:Chapter 5
    00:27:32.400                : en:Chapter 6
    00:30:59.607                : en:Chapter 7
    00:34:35.823                : en:Chapter 8
    00:39:46.842                : en:Chapter 9
    00:43:35.821                : en:Chapter 10
    00:48:40.917                : en:Chapter 11
    00:50:01.581                : en:Chapter 12
    00:52:21.888                : en:Chapter 13
    00:59:20.640                : en:Chapter 14
    01:00:13.276                : en:Chapter 15
    01:03:00.234                : en:Chapter 16
    01:08:23.432                : en:Chapter 17
    01:11:07.554                : en:Chapter 18
    01:13:52.219                : en:Chapter 19
    01:19:23.717                : en:Chapter 20
    01:21:33.304                : en:Chapter 21
    01:26:55.710                : en:Chapter 22
    01:31:25.771                : en:Chapter 23
    01:35:07.618                : en:Chapter 24
    01:39:53.570                : en:Chapter 25
    01:44:56.248                : en:Chapter 26
    01:49:43.117                : en:Chapter 27
    01:55:49.150                : en:Chapter 28
    02:01:52.388                : en:Chapter 29
    02:05:08.083                : en:Chapter 30
    02:06:58.694                : en:Chapter 31
    02:08:26.698                : en:Chapter 32

  • Peso: 4.80 GiB

Sinopsis

Descargar James Bond: Otro Día para Morir (2002) 1080p Latino. El agente 007 investiga secretamente los planes de Zao, el hijo del pacifista coronel Moon del ejército de Corea del Norte. El MI6 sospecha que Zao pueda tener planes ambiciosos que pongan en peligro la estabilidad mundial y esas sospechas se confirman cuando 007 descubre que Zao planea, efectivamente, unificar los ejércitos de las dos Coreas, atacar Japón y posteriormente, enfrentarse a los Estados Unidos. Antes de que pueda escapar Bond es descubierto por Zao quien le apresa y tortura. En su camino se cruza Jinx (Halle Berry) y Miranda Frost (Rosamund Pike), quienes jugarán papeles vitales en su última aventura.

Ficha técnica

Video trailer de la película

Enlaces de descarga

Rip de Bluray

Descargar James Bond: Otro Día para Morir (2002) 1080p Latino




Aportes de DPeliculasHDmega la pass es:dpeliculashdmega.org Aportes de CinemaniaHD la pass es:cinemaniahdd.com
Guardado en : Acción , Aventura , HD 1080p , Suspenso

Películas relacionadas

  • Zola (2020) HD 1080p Latino

    Zola (2020) HD 1080p Latino

    2020
    Zola (2020) HD 1080p Latino

    1h 26m 2020

    Descargar Zola (2020) HD 1080p Latino. Una camarera accede a acompañar a una bailarina exótica, su...

    Director: Sheri Davani

    Género: Comedia

    Actores: Ts Madison

  • Hocus Pocus: Abracadabra (1993) 1080p Latino

    Hocus Pocus: Abracadabra (1993) 1080p Latino

    1993
    Hocus Pocus: Abracadabra (1993) 1080p Latino

    1h 36m 1993

    Descargar Hocus Pocus: Abracadabra (1993) 1080p Latino. Tres brujas del siglo XII son invocadas durante...

    Director: Kenny Ortega

    Género: Comedia

    Actores: Vinessa Shaw

  • DC Liga De Supermascotas (2022) HD 1080p Latino

    DC Liga De Supermascotas (2022) HD 1080p Latino

    2022
    DC Liga De Supermascotas (2022) HD 1080p Latino

    1h 45m 2022

    Descargar DC Liga De Supermascotas (2022) HD 1080p Latino. Krypto el Superperro y Superman son amigos...

    Director: Sam Levine

    Género: Acción

    Actores: Yvette Nicole Brown

descargar James Bond: Otro Día para Morir (2002) 1080p Latino 1080p 1080p gratis, James Bond: Otro Día para Morir (2002) 1080p Latino 1080p mega 1 link, James Bond: Otro Día para Morir (2002) 1080p Latino 1080p pelicula completa, descargar James Bond: Otro Día para Morir (2002) 1080p Latino 1080p gratis en mega.

James Bond: Otro Día para Morir (2002) 1080p Latino pelicula full hd, James Bond: Otro Día para Morir (2002) 1080p Latino mega latino, James Bond: Otro Día para Morir (2002) 1080p Latino 4k latino, James Bond: Otro Día para Morir (2002) 1080p Latino pelicula completa, James Bond: Otro Día para Morir (2002) 1080p Latino descargar gratis, descargar James Bond: Otro Día para Morir (2002) 1080p Latino pelicula latino, James Bond: Otro Día para Morir (2002) 1080p Latino 1 link mega, James Bond: Otro Día para Morir (2002) 1080p Latino 1 link google drive, James Bond: Otro Día para Morir (2002) 1080p Latino hd 1080p latino.
Comentarios 0