×

¿Problemas para descargar con Mozilla, EDGE? Deshabilita la opción "Abrir vinculos en una pestaña nueva" tal como lo muestra ésta imagen.

James Bond: Otro Día para Morir (2002) Full HD 1080p Latino

1.765 vistas

Información de James Bond: Otro Día para Morir (2002) Full HD 1080p Latino

Datos de la película

  • Calidad: Full 1080p
  • Audio: Español Latino AC3 5.1 BLURAY - Ingles DTS 5.1 BLURAY
  • Subtitulos: Español Latino PGS - Ingles PGS
  • Resolución: 1920x1080p
  • Formato: MKV
  • Codec: H.264
  • Encoder: Dracarys
  • Mediainfo: Clic para Mostrar Datos Ver
  • Otro Dia Para Morir (2002) Full HD 1080p Latino-CMHDD.mkv
    Format                      : Matroska
    Format version              : Version 4
    File size                   : 10.5 GiB
    Duration                    : 2 h 12 min
    Overall bit rate            : 11.4 Mb/s
    Movie name                  : Die Another Day (2002) CinemaniaHDD.Net
    Encoded date                : UTC 2020-06-13 05:29:07
    Writing application         : mkvmerge v46.0.0 ('No Deeper Escape') 64-bit
    Writing library             : libebml v1.3.10 + libmatroska v1.5.2
    Attachments                 : CINEMANIAHD.png

    Video
    ID                          : 1
    Format                      : AVC
    Format/Info                 : Advanced Video Codec
    Format profile              : High@L4.1
    Format settings             : CABAC / 4 Ref Frames
    Format settings, CABAC      : Yes
    Format settings, Reference  : 4 frames
    Codec ID                    : V_MPEG4/ISO/AVC
    Duration                    : 2 h 12 min
    Bit rate                    : 9 388 kb/s
    Width                       : 1 920 pixels
    Height                      : 1 080 pixels
    Display aspect ratio        : 16:9
    Frame rate mode             : Constant
    Frame rate                  : 23.976 (24000/1001) FPS
    Color space                 : YUV
    Chroma subsampling          : 4:2:0
    Bit depth                   : 8 bits
    Scan type                   : Progressive
    Bits/(Pixel*Frame)          : 0.189
    Stream size                 : 8.69 GiB (83%)
    Title                       : Full HD1080p [CinemaniaHDD]
    Writing library             : x264 core 148 r2708 86b7198
    Encoding settings           : cabac=1 / ref=4 / deblock=1:0:0 / analyse=0x3:0x133 / me=esa / subme=10 / psy=1 / psy_rd=1.00:0.00 / mixed_ref=1 / me_range=24 / chroma_me=1 / trellis=2 / 8x8dct=1 / cqm=0 / deadzone=21,11 / fast_pskip=1 / chroma_qp_offset=-2 / threads=34 / lookahead_threads=5 / sliced_threads=0 / nr=0 / decimate=1 / interlaced=0 / bluray_compat=0 / constrained_intra=0 / bframes=8 / b_pyramid=2 / b_adapt=2 / b_bias=0 / direct=3 / weightb=1 / open_gop=0 / weightp=2 / keyint=240 / keyint_min=24 / scenecut=40 / intra_refresh=0 / rc_lookahead=60 / rc=crf / mbtree=1 / crf=20.0 / qcomp=0.60 / qpmin=0 / qpmax=69 / qpstep=4 / vbv_maxrate=62500 / vbv_bufsize=78125 / crf_max=0.0 / nal_hrd=none / filler=0 / ip_ratio=1.40 / aq=1:1.00
    Language                    : English
    Default                     : Yes
    Forced                      : No
    Color range                 : Limited
    Color primaries             : BT.709
    Transfer characteristics    : BT.709
    Matrix coefficients         : BT.709

    Audio #1
    ID                          : 2
    Format                      : AC-3
    Format/Info                 : Audio Coding 3
    Commercial name             : Dolby Digital
    Codec ID                    : A_AC3
    Duration                    : 2 h 12 min
    Bit rate mode               : Constant
    Bit rate                    : 448 kb/s
    Channel(s)                  : 6 channels
    Channel layout              : L R C LFE Ls Rs
    Sampling rate               : 48.0 kHz
    Frame rate                  : 31.250 FPS (1536 SPF)
    Compression mode            : Lossy
    Stream size                 : 424 MiB (4%)
    Title                       : Español Latino [CinemaniaHDD]
    Language                    : Spanish
    Service kind                : Complete Main
    Default                     : Yes
    Forced                      : No

    Audio #2
    ID                          : 3
    Format                      : DTS
    Format/Info                 : Digital Theater Systems
    Codec ID                    : A_DTS
    Duration                    : 2 h 12 min
    Bit rate mode               : Constant
    Bit rate                    : 1 509 kb/s
    Channel(s)                  : 6 channels
    Channel layout              : C L R Ls Rs LFE
    Sampling rate               : 48.0 kHz
    Frame rate                  : 93.750 FPS (512 SPF)
    Bit depth                   : 24 bits
    Compression mode            : Lossy
    Stream size                 : 1.40 GiB (13%)
    Title                       : Ingles [CinemaniaHDD]
    Language                    : English
    Default                     : No
    Forced                      : No

    Text #1
    ID                          : 4
    Format                      : PGS
    Muxing mode                 : zlib
    Codec ID                    : S_HDMV/PGS
    Codec ID/Info               : Picture based subtitle format used on BDs/HD-DVDs
    Duration                    : 2 h 8 min
    Bit rate                    : 347 b/s
    Count of elements           : 100
    Stream size                 : 327 KiB (0%)
    Title                       : Forzados-PGS [CinemaniaHDD]
    Language                    : Spanish
    Default                     : Yes
    Forced                      : Yes

    Text #2
    ID                          : 5
    Format                      : PGS
    Muxing mode                 : zlib
    Codec ID                    : S_HDMV/PGS
    Codec ID/Info               : Picture based subtitle format used on BDs/HD-DVDs
    Duration                    : 2 h 11 min
    Bit rate                    : 17.8 kb/s
    Count of elements           : 1666
    Stream size                 : 16.8 MiB (0%)
    Title                       : Español-PGS [CinemaniaHDD]
    Language                    : Spanish
    Default                     : No
    Forced                      : No

    Text #3
    ID                          : 6
    Format                      : PGS
    Muxing mode                 : zlib
    Codec ID                    : S_HDMV/PGS
    Codec ID/Info               : Picture based subtitle format used on BDs/HD-DVDs
    Duration                    : 2 h 12 min
    Bit rate                    : 22.9 kb/s
    Count of elements           : 2000
    Stream size                 : 21.7 MiB (0%)
    Title                       : Ingles-PGS [CinemaniaHDD]
    Language                    : English
    Default                     : No
    Forced                      : No

    Text #4
    ID                          : 7
    Format                      : UTF-8
    Codec ID                    : S_TEXT/UTF8
    Codec ID/Info               : UTF-8 Plain Text
    Duration                    : 2 h 11 min
    Bit rate                    : 0 b/s
    Count of elements           : 44
    Stream size                 : 928 Bytes (0%)
    Title                       : Forzados-SRT [CinemaniaHDD]
    Language                    : Spanish
    Default                     : No
    Forced                      : No

    Text #5
    ID                          : 8
    Format                      : UTF-8
    Codec ID                    : S_TEXT/UTF8
    Codec ID/Info               : UTF-8 Plain Text
    Duration                    : 2 h 11 min
    Bit rate                    : 28 b/s
    Count of elements           : 837
    Stream size                 : 27.4 KiB (0%)
    Title                       : Español-SRT [CinemaniaHDD]
    Language                    : Spanish
    Default                     : No
    Forced                      : No

    Menu
    00:00:00.000                : :Chapter 1
    00:09:28.151                : :Chapter 2
    00:13:15.962                : :Chapter 3
    00:16:40.833                : :Chapter 4
    00:22:19.839                : :Chapter 5
    00:27:32.442                : :Chapter 6
    00:30:59.649                : :Chapter 7
    00:34:35.865                : :Chapter 8
    00:39:46.926                : :Chapter 9
    00:43:35.905                : :Chapter 10
    00:48:41.001                : :Chapter 11
    00:50:01.665                : :Chapter 12
    00:52:21.972                : :Chapter 13
    00:59:20.724                : :Chapter 14
    01:00:13.360                : :Chapter 15
    01:03:00.318                : :Chapter 16
    01:08:23.516                : :Chapter 17
    01:11:07.638                : :Chapter 18
    01:13:52.345                : :Chapter 19
    01:19:23.842                : :Chapter 20
    01:21:33.430                : :Chapter 21
    01:26:55.836                : :Chapter 22
    01:31:25.897                : :Chapter 23
    01:35:07.744                : :Chapter 24
    01:39:53.696                : :Chapter 25
    01:44:56.373                : :Chapter 26
    01:49:43.243                : :Chapter 27
    01:55:49.317                : :Chapter 28
    02:01:52.597                : :Chapter 29
    02:05:08.292                : :Chapter 30
    02:06:58.903                : :Chapter 31
    02:08:26.908                : :Chapter 32

  • Peso: 10.5 GiB

Sinopsis

Descargar James Bond: Otro Día para Morir (2002) Full HD 1080p Latino. El agente 007 investiga secretamente los planes de Zao, el hijo del pacifista coronel Moon del ejército de Corea del Norte. El MI6 sospecha que Zao pueda tener planes ambiciosos que pongan en peligro la estabilidad mundial y esas sospechas se confirman cuando 007 descubre que Zao planea, efectivamente, unificar los ejércitos de las dos Coreas, atacar Japón y posteriormente, enfrentarse a los Estados Unidos. Antes de que pueda escapar Bond es descubierto por Zao quien le apresa y tortura. En su camino se cruza Jinx (Halle Berry) y Miranda Frost (Rosamund Pike), quienes jugarán papeles vitales en su última aventura.

RESUBIDO!

Ficha técnica

Video trailer de la película

Enlaces de descarga

Rip de Bluray

Descargar James Bond: Otro Día para Morir (2002) Full HD 1080p Latino




Aportes de DPeliculasHDmega la pass es:dpeliculashdmega.org Aportes de CinemaniaHD la pass es:cinemaniahdd.com

Películas relacionadas

descargar James Bond: Otro Día para Morir (2002) Full HD 1080p Latino Full 1080p 1080p gratis, James Bond: Otro Día para Morir (2002) Full HD 1080p Latino Full 1080p mega 1 link, James Bond: Otro Día para Morir (2002) Full HD 1080p Latino Full 1080p pelicula completa, descargar James Bond: Otro Día para Morir (2002) Full HD 1080p Latino Full 1080p gratis en mega.

James Bond: Otro Día para Morir (2002) Full HD 1080p Latino pelicula full hd, James Bond: Otro Día para Morir (2002) Full HD 1080p Latino mega latino, James Bond: Otro Día para Morir (2002) Full HD 1080p Latino 4k latino, James Bond: Otro Día para Morir (2002) Full HD 1080p Latino pelicula completa, James Bond: Otro Día para Morir (2002) Full HD 1080p Latino descargar gratis, descargar James Bond: Otro Día para Morir (2002) Full HD 1080p Latino pelicula latino, James Bond: Otro Día para Morir (2002) Full HD 1080p Latino 1 link mega, James Bond: Otro Día para Morir (2002) Full HD 1080p Latino 1 link google drive, James Bond: Otro Día para Morir (2002) Full HD 1080p Latino hd 1080p latino.
Comentarios 7
  • ocpgaiden - 15 junio, 2020

    Gracias por resubir las 4 peliculas del 007 (pierce brosnan), saludos

  • VJFENIXS - 15 junio, 2020

    Favor Reparar Acortes No Se Puede Descargar Nada, Están Bloqueados Dice y Favor Suban en Mega los Remux y Todo estos servidores (Mediafire, a un que Caduque con el Tiempo), 1ficher, Mega y 4shared por que Google Drive son una Plena Desepcion no vale la Pena Subir Nada Ahí, Gracias Saludes 👍

    • Dracarys - 15 junio, 2020

      No se subirá a Mediafire Nunca es una perdida de tiempo… No quieres que te manden los link por correo igual? quieren todo Gratis y se ponen exigentes…. Uptobox Mega Drive y 1fichier se sube nada mas

  • raul - 09 agosto, 2018

    No se puede descargar, siempre marca en el google drive : En estos momentos no puedes ver ni descargar este archivo.
    Este archivo lo han visto o descargado demasiados usuarios últimamente. Intenta volver a acceder a él más tarde. Si el archivo al que intentas acceder es especialmente grande o se comparte con muchos usuarios, es posible que tardes hasta 24 horas en verlo o en descargarlo. Si transcurrido este tiempo sigues sin poder acceder a él, ponte en contacto con el administrador del dominio.

    En todos los archivos de googledrive aparece ese mensaje, ojala se pueda arreglar saludos…. y gracias por el aporte.

    • Dracarys - 09 agosto, 2018

      es por que la cuenta de Google se colapsa… para los usuarios VIP no pasa esto ya que se usan cuentas diferentes

  • ocpgaiden - 02 agosto, 2018

    el tema de la palicula, excelente canción, saludos y gracias

  • The Principal - 02 agosto, 2018

    Wow amigo tremenda colecion….solo faltan las ultimas 5…muy atento de tu parte….Gracias!