×

¿Problemas para descargar con Mozilla, EDGE? Deshabilita la opción "Abrir vinculos en una pestaña nueva" tal como lo muestra ésta imagen.

James Bond: Los Diamantes son Eternos (1971) REMUX 1080p Latino

484 vistas

Información de James Bond: Los Diamantes son Eternos (1971) REMUX 1080p Latino

Datos de la película

  • Calidad: Full 1080p
  • Audio: Español Latino AC3 5.1 BLURAY - Ingles DTS 5.1 BLURAY
  • Subtitulos: Español Latino PGS - Ingles PGS
  • Resolución: 1920x1080p
  • Formato: MKV
  • Codec: H.264
  • Encoder: CinefiloCool
  • Mediainfo: Clic para Mostrar Datos Ver
  • Los Diamantes Son Eternos (1971) REMUX 1080p Latino-CMHDD.mkv
    Format                      : Matroska
    Format version              : Version 4
    File size                   : 29.7 GiB
    Duration                    : 2 h 0 min
    Overall bit rate mode       : Variable
    Overall bit rate            : 35.4 Mb/s
    Movie name                  : Diamonds Are Forever (1971) CinemaniaHDD.Net
    Encoded date                : UTC 2020-06-02 06:52:21
    Writing application         : mkvmerge v46.0.0 ('No Deeper Escape') 64-bit
    Writing library             : libebml v1.3.10 + libmatroska v1.5.2
    Attachments                 : CINEMANIAHD.png

    Video
    ID                          : 1
    Format                      : AVC
    Format/Info                 : Advanced Video Codec
    Format profile              : High@L4.1
    Format settings             : CABAC / 4 Ref Frames
    Format settings, CABAC      : Yes
    Format settings, Reference  : 4 frames
    Codec ID                    : V_MPEG4/ISO/AVC
    Duration                    : 2 h 0 min
    Bit rate mode               : Variable
    Bit rate                    : 30.9 Mb/s
    Maximum bit rate            : 32.0 Mb/s
    Width                       : 1 920 pixels
    Height                      : 1 080 pixels
    Display aspect ratio        : 16:9
    Frame rate mode             : Constant
    Frame rate                  : 23.976 (24000/1001) FPS
    Color space                 : YUV
    Chroma subsampling          : 4:2:0
    Bit depth                   : 8 bits
    Scan type                   : Progressive
    Bits/(Pixel*Frame)          : 0.622
    Stream size                 : 25.9 GiB (87%)
    Title                       : REMUX 1080p [CinemaniaHDD]
    Language                    : English
    Default                     : Yes
    Forced                      : No

    Audio #1
    ID                          : 2
    Format                      : AC-3
    Format/Info                 : Audio Coding 3
    Commercial name             : Dolby Digital
    Codec ID                    : A_AC3
    Duration                    : 2 h 0 min
    Bit rate mode               : Constant
    Bit rate                    : 448 kb/s
    Channel(s)                  : 6 channels
    Channel layout              : L R C LFE Ls Rs
    Sampling rate               : 48.0 kHz
    Frame rate                  : 31.250 FPS (1536 SPF)
    Compression mode            : Lossy
    Stream size                 : 385 MiB (1%)
    Title                       : Español Latino [CinemaniaHDD]
    Language                    : Spanish
    Service kind                : Complete Main
    Default                     : Yes
    Forced                      : No

    Audio #2
    ID                          : 3
    Format                      : DTS XLL
    Format/Info                 : Digital Theater Systems
    Commercial name             : DTS-HD Master Audio
    Codec ID                    : A_DTS
    Duration                    : 2 h 0 min
    Bit rate mode               : Variable
    Bit rate                    : 4 061 kb/s
    Channel(s)                  : 6 channels
    Channel layout              : C L R Ls Rs LFE
    Sampling rate               : 48.0 kHz
    Frame rate                  : 93.750 FPS (512 SPF)
    Bit depth                   : 24 bits
    Compression mode            : Lossless
    Stream size                 : 3.41 GiB (11%)
    Title                       : Ingles [CinemaniaHDD]
    Language                    : English
    Default                     : No
    Forced                      : No

    Text #1
    ID                          : 4
    Format                      : PGS
    Muxing mode                 : zlib
    Codec ID                    : S_HDMV/PGS
    Codec ID/Info               : Picture based subtitle format used on BDs/HD-DVDs
    Duration                    : 1 h 49 min
    Bit rate                    : 363 b/s
    Count of elements           : 30
    Stream size                 : 292 KiB (0%)
    Title                       : Forzados-PGS [CinemaniaHDD]
    Language                    : Spanish
    Default                     : Yes
    Forced                      : No

    Text #2
    ID                          : 5
    Format                      : PGS
    Muxing mode                 : zlib
    Codec ID                    : S_HDMV/PGS
    Codec ID/Info               : Picture based subtitle format used on BDs/HD-DVDs
    Duration                    : 1 h 59 min
    Bit rate                    : 29.8 kb/s
    Count of elements           : 2185
    Stream size                 : 25.4 MiB (0%)
    Title                       : Español-PGS [CinemaniaHDD]
    Language                    : Spanish
    Default                     : No
    Forced                      : No

    Text #3
    ID                          : 6
    Format                      : PGS
    Muxing mode                 : zlib
    Codec ID                    : S_HDMV/PGS
    Codec ID/Info               : Picture based subtitle format used on BDs/HD-DVDs
    Duration                    : 1 h 59 min
    Bit rate                    : 28.3 kb/s
    Count of elements           : 2135
    Stream size                 : 24.1 MiB (0%)
    Title                       : Ingles-PGS [CinemaniaHDD]
    Language                    : English
    Default                     : No
    Forced                      : No

    Text #4
    ID                          : 7
    Format                      : UTF-8
    Codec ID                    : S_TEXT/UTF8
    Codec ID/Info               : UTF-8 Plain Text
    Duration                    : 1 h 49 min
    Bit rate                    : 0 b/s
    Count of elements           : 14
    Stream size                 : 545 Bytes (0%)
    Title                       : Forzados-SRT [CinemaniaHDD]
    Language                    : Spanish
    Default                     : No
    Forced                      : No

    Text #5
    ID                          : 8
    Format                      : UTF-8
    Codec ID                    : S_TEXT/UTF8
    Codec ID/Info               : UTF-8 Plain Text
    Duration                    : 1 h 59 min
    Bit rate                    : 47 b/s
    Count of elements           : 1084
    Stream size                 : 41.1 KiB (0%)
    Title                       : Español-SRT [CinemaniaHDD]
    Language                    : Spanish
    Default                     : No
    Forced                      : No

    Menu
    00:00:00.000                : en:Chapter 1
    00:04:56.170                : en:Chapter 2
    00:07:45.756                : en:Chapter 3
    00:10:31.464                : en:Chapter 4
    00:14:43.299                : en:Chapter 5
    00:17:15.826                : en:Chapter 6
    00:21:31.456                : en:Chapter 7
    00:25:37.536                : en:Chapter 8
    00:29:11.458                : en:Chapter 9
    00:34:10.882                : en:Chapter 10
    00:36:51.584                : en:Chapter 11
    00:39:36.165                : en:Chapter 12
    00:43:57.593                : en:Chapter 13
    00:49:59.663                : en:Chapter 14
    00:51:45.894                : en:Chapter 15
    00:56:34.057                : en:Chapter 16
    00:59:17.011                : en:Chapter 17
    01:03:33.643                : en:Chapter 18
    01:08:01.285                : en:Chapter 19
    01:12:56.163                : en:Chapter 20
    01:18:34.960                : en:Chapter 21
    01:20:29.574                : en:Chapter 22
    01:23:11.736                : en:Chapter 23
    01:30:21.958                : en:Chapter 24
    01:32:01.641                : en:Chapter 25
    01:33:06.497                : en:Chapter 26
    01:36:06.010                : en:Chapter 27
    01:37:59.373                : en:Chapter 28
    01:41:39.885                : en:Chapter 29
    01:47:22.811                : en:Chapter 30
    01:54:13.972                : en:Chapter 31
    01:58:34.357                : en:Chapter 32

  • Peso: 29.7 GiB

Sinopsis

Descargar James Bond: Los Diamantes son Eternos (1971) REMUX 1080p Latino. James Bond se hace pasar por un traficante de diamantes para infiltrarse en una red de contrabando y pronto descubre un complot de su antiguo némesis Ernst Stavro Blofeld para utilizar los diamantes para construir un láser gigante. Bond tendrá que luchar contra su némesis por última vez, con el fin de detener el contrabando y evitar el plan de Blofeld de destruir Washington DC y extorsionar al mundo con supremacía nuclear.

Ficha técnica

Video trailer de la película

Enlaces de descarga

Rip de Bluray

Descargar James Bond: Los Diamantes son Eternos (1971) REMUX 1080p Latino




Aportes de DPeliculasHDmega la pass es:dpeliculashdmega.org Aportes de CinemaniaHD la pass es:cinemaniahdd.com
Guardado en : Acción , Aventura , Remux , Suspenso

Películas relacionadas

  • Wire Room (2022) HD 1080p Latino

    Wire Room (2022) HD 1080p Latino

    2022
    Wire Room (2022) HD 1080p Latino

    1h 37m 2022

    Descargar Wire Room (2022) HD 1080p Latino. Mientras está de servicio en la sala de cables, un agente...

    Director: Matt Eskandari

    Género: Acción

    Actores: Texas Battle

  • Wire Room (2022) PLACEBO Full HD 1080p Latino

    Wire Room (2022) PLACEBO Full HD 1080p Latino

    2022
    Wire Room (2022) PLACEBO Full HD 1080p Latino

    1h 37m 2022

    Descargar Wire Room (2022) PLACEBO Full HD 1080p Latino. Mientras está de servicio en la sala de cables,...

    Director: Matt Eskandari

    Género: Acción

    Actores: Texas Battle

  • Wire Room (2022) REMUX 1080p Latino

    Wire Room (2022) REMUX 1080p Latino

    2022
    Wire Room (2022) REMUX 1080p Latino

    1h 37m 2022

    Descargar Wire Room (2022) REMUX 1080p Latino. Mientras está de servicio en la sala de cables, un agente...

    Director: Matt Eskandari

    Género: Acción

    Actores: Texas Battle

  • Alarido (2022) HD 1080p Latino

    Alarido (2022) HD 1080p Latino

    2022
    Alarido (2022) HD 1080p Latino

    1h 29m 2022

    Descargar Alarido (2022) HD 1080p Latino. Una joven madre soltera es cautiva junto con sus dos hijos...

    Director: D.J. Caruso

    Género: HD 1080p

    Actores: Vincent Gallo

  • Alarido (2022) PLACEBO Full HD 1080p Latino

    Alarido (2022) PLACEBO Full HD 1080p Latino

    2022
    Alarido (2022) PLACEBO Full HD 1080p Latino

    1h 29m 2022

    Descargar Alarido (2022) PLACEBO Full HD 1080p Latino. Una joven madre soltera es cautiva junto con sus...

    Director: D.J. Caruso

    Género: FULL 1080p Plateadas

    Actores: Vincent Gallo

descargar James Bond: Los Diamantes son Eternos (1971) REMUX 1080p Latino Full 1080p 1080p gratis, James Bond: Los Diamantes son Eternos (1971) REMUX 1080p Latino Full 1080p mega 1 link, James Bond: Los Diamantes son Eternos (1971) REMUX 1080p Latino Full 1080p pelicula completa, descargar James Bond: Los Diamantes son Eternos (1971) REMUX 1080p Latino Full 1080p gratis en mega.

James Bond: Los Diamantes son Eternos (1971) REMUX 1080p Latino pelicula full hd, James Bond: Los Diamantes son Eternos (1971) REMUX 1080p Latino mega latino, James Bond: Los Diamantes son Eternos (1971) REMUX 1080p Latino 4k latino, James Bond: Los Diamantes son Eternos (1971) REMUX 1080p Latino pelicula completa, James Bond: Los Diamantes son Eternos (1971) REMUX 1080p Latino descargar gratis, descargar James Bond: Los Diamantes son Eternos (1971) REMUX 1080p Latino pelicula latino, James Bond: Los Diamantes son Eternos (1971) REMUX 1080p Latino 1 link mega, James Bond: Los Diamantes son Eternos (1971) REMUX 1080p Latino 1 link google drive, James Bond: Los Diamantes son Eternos (1971) REMUX 1080p Latino hd 1080p latino.
Comentarios 0