×

¿Problemas para descargar con Mozilla, EDGE? Deshabilita la opción "Abrir vinculos en una pestaña nueva" tal como lo muestra ésta imagen.

James Bond: Los Diamantes son Eternos (1971) 1080p Latino

410 vistas

Información de James Bond: Los Diamantes son Eternos (1971) 1080p Latino

Datos de la película

  • Calidad: 1080p
  • Audio: Español Latino AC3 5.1 BLURAY - Ingles AC3 5.1 BLURAY
  • Subtitulos: Español Latino SRT - Ingles SRT
  • Resolución: 1920x818
  • Formato: MKV
  • Codec: H.264
  • Encoder: CinefiloCool
  • Mediainfo: Clic para Mostrar Datos Ver
  • Los Diamantes Son Eternos (1971) 1080p Latino-CMHDD.mkv
    Format                      : Matroska
    Format version              : Version 4
    File size                   : 4.35 GiB
    Duration                    : 2 h 0 min
    Overall bit rate mode       : Variable
    Overall bit rate            : 5 186 kb/s
    Movie name                  : Diamonds Are Forever (1971) CinemaniaHDD.Net
    Encoded date                : UTC 2020-06-02 04:37:51
    Writing application         : mkvmerge v46.0.0 ('No Deeper Escape') 64-bit
    Writing library             : libebml v1.3.10 + libmatroska v1.5.2
    Attachments                 : CINEMANIAHD.png

    Video
    ID                          : 1
    Format                      : AVC
    Format/Info                 : Advanced Video Codec
    Format profile              : High@L4
    Format settings             : CABAC / 3 Ref Frames
    Format settings, CABAC      : Yes
    Format settings, Reference  : 3 frames
    Codec ID                    : V_MPEG4/ISO/AVC
    Duration                    : 2 h 0 min
    Bit rate mode               : Variable
    Bit rate                    : 4 096 kb/s
    Width                       : 1 920 pixels
    Height                      : 818 pixels
    Display aspect ratio        : 2.35:1
    Frame rate mode             : Constant
    Frame rate                  : 23.976 (24000/1001) FPS
    Color space                 : YUV
    Chroma subsampling          : 4:2:0
    Bit depth                   : 8 bits
    Scan type                   : Progressive
    Bits/(Pixel*Frame)          : 0.109
    Stream size                 : 3.44 GiB (79%)
    Title                       : HD1080p [CinemaniaHDD]
    Writing library             : x264 core 142 r2479 dd79a61
    Encoding settings           : cabac=1 / ref=3 / deblock=1:0:0 / analyse=0x3:0x113 / me=hex / subme=7 / psy=1 / psy_rd=1.00:0.00 / mixed_ref=1 / me_range=16 / chroma_me=1 / trellis=1 / 8x8dct=1 / cqm=0 / deadzone=21,11 / fast_pskip=1 / chroma_qp_offset=-2 / threads=6 / lookahead_threads=1 / sliced_threads=0 / nr=0 / decimate=1 / interlaced=0 / bluray_compat=0 / constrained_intra=0 / bframes=3 / b_pyramid=0 / b_adapt=1 / b_bias=0 / direct=1 / weightb=1 / open_gop=0 / weightp=2 / keyint=240 / keyint_min=24 / scenecut=40 / intra_refresh=0 / rc_lookahead=40 / rc=2pass / mbtree=1 / bitrate=4096 / ratetol=1.0 / qcomp=0.60 / qpmin=0 / qpmax=69 / qpstep=4 / cplxblur=20.0 / qblur=0.5 / vbv_maxrate=25000 / vbv_bufsize=25000 / nal_hrd=vbr / filler=0 / ip_ratio=1.40 / aq=1:1.00
    Default                     : Yes
    Forced                      : No

    Audio #1
    ID                          : 2
    Format                      : AC-3
    Format/Info                 : Audio Coding 3
    Commercial name             : Dolby Digital
    Codec ID                    : A_AC3
    Duration                    : 2 h 0 min
    Bit rate mode               : Constant
    Bit rate                    : 448 kb/s
    Channel(s)                  : 6 channels
    Channel layout              : L R C LFE Ls Rs
    Sampling rate               : 48.0 kHz
    Frame rate                  : 31.250 FPS (1536 SPF)
    Compression mode            : Lossy
    Stream size                 : 385 MiB (9%)
    Title                       : Español Latino [CinemaniaHDD]
    Language                    : Spanish
    Service kind                : Complete Main
    Default                     : Yes
    Forced                      : No

    Audio #2
    ID                          : 3
    Format                      : AC-3
    Format/Info                 : Audio Coding 3
    Commercial name             : Dolby Digital
    Codec ID                    : A_AC3
    Duration                    : 2 h 0 min
    Bit rate mode               : Constant
    Bit rate                    : 640 kb/s
    Channel(s)                  : 6 channels
    Channel layout              : L R C LFE Ls Rs
    Sampling rate               : 48.0 kHz
    Frame rate                  : 31.250 FPS (1536 SPF)
    Compression mode            : Lossy
    Stream size                 : 550 MiB (12%)
    Title                       : Ingles [CinemaniaHDD]
    Language                    : English
    Service kind                : Complete Main
    Default                     : No
    Forced                      : No

    Text #1
    ID                          : 4
    Format                      : UTF-8
    Codec ID                    : S_TEXT/UTF8
    Codec ID/Info               : UTF-8 Plain Text
    Duration                    : 1 h 49 min
    Bit rate                    : 0 b/s
    Count of elements           : 14
    Stream size                 : 545 Bytes (0%)
    Title                       : Forzados-SRT [CinemaniaHDD]
    Language                    : Spanish
    Default                     : Yes
    Forced                      : No

    Text #2
    ID                          : 5
    Format                      : UTF-8
    Codec ID                    : S_TEXT/UTF8
    Codec ID/Info               : UTF-8 Plain Text
    Duration                    : 1 h 59 min
    Bit rate                    : 47 b/s
    Count of elements           : 1084
    Stream size                 : 41.1 KiB (0%)
    Title                       : Español-SRT [CinemaniaHDD]
    Language                    : Spanish
    Default                     : No
    Forced                      : No

    Text #3
    ID                          : 6
    Format                      : UTF-8
    Codec ID                    : S_TEXT/UTF8
    Codec ID/Info               : UTF-8 Plain Text
    Duration                    : 1 h 59 min
    Bit rate                    : 47 b/s
    Count of elements           : 1186
    Stream size                 : 41.6 KiB (0%)
    Title                       : Ingles-SRT [CinemaniaHDD]
    Language                    : English
    Default                     : No
    Forced                      : No

    Menu
    00:00:00.000                : :Chapter 1
    00:04:56.171                : :Chapter 2
    00:07:45.757                : :Chapter 3
    00:10:31.464                : :Chapter 4
    00:14:43.299                : :Chapter 5
    00:17:15.826                : :Chapter 6
    00:21:31.457                : :Chapter 7
    00:25:37.536                : :Chapter 8
    00:29:11.458                : :Chapter 9
    00:34:10.882                : :Chapter 10
    00:36:51.584                : :Chapter 11
    00:39:36.165                : :Chapter 12
    00:43:57.593                : :Chapter 13
    00:49:59.663                : :Chapter 14
    00:51:45.894                : :Chapter 15
    00:56:34.057                : :Chapter 16
    00:59:17.012                : :Chapter 17
    01:03:33.643                : :Chapter 18
    01:08:01.286                : :Chapter 19
    01:12:56.163                : :Chapter 20
    01:18:34.960                : :Chapter 21
    01:20:28.866                : :Chapter 22
    01:23:11.737                : :Chapter 23
    01:30:21.958                : :Chapter 24
    01:32:01.641                : :Chapter 25
    01:33:06.498                : :Chapter 26
    01:36:06.010                : :Chapter 27
    01:37:59.374                : :Chapter 28
    01:41:39.885                : :Chapter 29
    01:47:22.811                : :Chapter 30
    01:54:13.972                : :Chapter 31
    01:58:34.316                : :Chapter 32

  • Peso: 4.35 GiB

Sinopsis

Descargar James Bond: Los Diamantes son Eternos (1971) 1080p Latino. James Bond se hace pasar por un traficante de diamantes para infiltrarse en una red de contrabando y pronto descubre un complot de su antiguo némesis Ernst Stavro Blofeld para utilizar los diamantes para construir un láser gigante. Bond tendrá que luchar contra su némesis por última vez, con el fin de detener el contrabando y evitar el plan de Blofeld de destruir Washington DC y extorsionar al mundo con supremacía nuclear.

Ficha técnica

Video trailer de la película

Enlaces de descarga

Rip de Bluray

Descargar James Bond: Los Diamantes son Eternos (1971) 1080p Latino




Aportes de DPeliculasHDmega la pass es:dpeliculashdmega.org Aportes de CinemaniaHD la pass es:cinemaniahdd.com
Guardado en : Acción , Aventura , HD 1080p , Suspenso

Películas relacionadas

  • DC Liga De Supermascotas (2022) HD 1080p Latino

    DC Liga De Supermascotas (2022) HD 1080p Latino

    2022
    DC Liga De Supermascotas (2022) HD 1080p Latino

    1h 45m 2022

    Descargar DC Liga De Supermascotas (2022) HD 1080p Latino. Krypto el Superperro y Superman son amigos...

    Director: Sam Levine

    Género: Acción

    Actores: Yvette Nicole Brown

  • Invitacion Al Infierno (2022) MA WEB-DL 1080p Latino

    Invitacion Al Infierno (2022) MA WEB-DL 1080p Latino

    2022
    Invitacion Al Infierno (2022) MA WEB-DL 1080p Latino

    1h 45m 2022

    Descargar Invitacion Al Infierno (2022) MA WEB-DL 1080p Latino. Tras la muerte de su madre y quedarse...

    Director: Jessica M. Thompson

    Género: Suspenso

    Actores: Virág Bárány

  • Tremors (1990) REMUX 4K HDR Latino – CMHDD

    Tremors (1990) REMUX 4K HDR Latino – CMHDD

    1990
    Tremors (1990) REMUX 4K HDR Latino – CMHDD

    1h 35m 1990

    En Perfección, un pequeño pueblo al borde del desierto de Nevada, algo parece suceder debajo de la...

    Director: Susan Bierbaum

    Género: Acción

    Actores: Victor Wong

descargar James Bond: Los Diamantes son Eternos (1971) 1080p Latino 1080p 1080p gratis, James Bond: Los Diamantes son Eternos (1971) 1080p Latino 1080p mega 1 link, James Bond: Los Diamantes son Eternos (1971) 1080p Latino 1080p pelicula completa, descargar James Bond: Los Diamantes son Eternos (1971) 1080p Latino 1080p gratis en mega.

James Bond: Los Diamantes son Eternos (1971) 1080p Latino pelicula full hd, James Bond: Los Diamantes son Eternos (1971) 1080p Latino mega latino, James Bond: Los Diamantes son Eternos (1971) 1080p Latino 4k latino, James Bond: Los Diamantes son Eternos (1971) 1080p Latino pelicula completa, James Bond: Los Diamantes son Eternos (1971) 1080p Latino descargar gratis, descargar James Bond: Los Diamantes son Eternos (1971) 1080p Latino pelicula latino, James Bond: Los Diamantes son Eternos (1971) 1080p Latino 1 link mega, James Bond: Los Diamantes son Eternos (1971) 1080p Latino 1 link google drive, James Bond: Los Diamantes son Eternos (1971) 1080p Latino hd 1080p latino.
Comentarios 0