×

¿Problemas para descargar con Mozilla, EDGE? Deshabilita la opción "Abrir vinculos en una pestaña nueva" tal como lo muestra ésta imagen.

James Bond: Los Diamantes son Eternos (1971) Full HD 1080p Latino

1.126 vistas

Información de James Bond: Los Diamantes son Eternos (1971) Full HD 1080p Latino

Datos de la película

  • Calidad: Full 1080p
  • Audio: Español Latino AC3 5.1 BLURAY - Ingles DTS 5.1 BLURAY
  • Subtitulos: Español Latino PGS - Ingles PGS
  • Resolución: 1920x1080p
  • Formato: MKV
  • Codec: H.264
  • Encoder: Dracarys
  • Mediainfo: Clic para Mostrar Datos Ver
  • Los Diamantes Son Eternos (1971) Full HD 1080p Latino-CMHDD.mkv
    Format                      : Matroska
    Format version              : Version 4
    File size                   : 6.94 GiB
    Duration                    : 2 h 0 min
    Overall bit rate            : 8 275 kb/s
    Movie name                  : Diamonds Are Forever (1971) CinemaniaHDD.Net
    Encoded date                : UTC 2020-06-02 04:31:05
    Writing application         : mkvmerge v46.0.0 ('No Deeper Escape') 64-bit
    Writing library             : libebml v1.3.10 + libmatroska v1.5.2
    Attachments                 : CINEMANIAHD.png

    Video
    ID                          : 1
    Format                      : AVC
    Format/Info                 : Advanced Video Codec
    Format profile              : High@L4.1
    Format settings             : CABAC / 4 Ref Frames
    Format settings, CABAC      : Yes
    Format settings, Reference  : 4 frames
    Codec ID                    : V_MPEG4/ISO/AVC
    Duration                    : 2 h 0 min
    Bit rate                    : 6 297 kb/s
    Width                       : 1 920 pixels
    Height                      : 1 080 pixels
    Display aspect ratio        : 16:9
    Frame rate mode             : Constant
    Frame rate                  : 23.976 (24000/1001) FPS
    Color space                 : YUV
    Chroma subsampling          : 4:2:0
    Bit depth                   : 8 bits
    Scan type                   : Progressive
    Bits/(Pixel*Frame)          : 0.127
    Stream size                 : 5.28 GiB (76%)
    Title                       : Full HD1080p [CinemaniaHDD]
    Writing library             : x264 core 148 r2708 86b7198
    Encoding settings           : cabac=1 / ref=4 / deblock=1:0:0 / analyse=0x3:0x133 / me=esa / subme=10 / psy=1 / psy_rd=1.00:0.00 / mixed_ref=1 / me_range=24 / chroma_me=1 / trellis=2 / 8x8dct=1 / cqm=0 / deadzone=21,11 / fast_pskip=1 / chroma_qp_offset=-2 / threads=34 / lookahead_threads=5 / sliced_threads=0 / nr=0 / decimate=1 / interlaced=0 / bluray_compat=0 / constrained_intra=0 / bframes=8 / b_pyramid=2 / b_adapt=2 / b_bias=0 / direct=3 / weightb=1 / open_gop=0 / weightp=2 / keyint=240 / keyint_min=24 / scenecut=40 / intra_refresh=0 / rc_lookahead=60 / rc=crf / mbtree=1 / crf=20.0 / qcomp=0.60 / qpmin=0 / qpmax=69 / qpstep=4 / vbv_maxrate=62500 / vbv_bufsize=78125 / crf_max=0.0 / nal_hrd=none / filler=0 / ip_ratio=1.40 / aq=1:1.00
    Language                    : English
    Default                     : Yes
    Forced                      : No
    Color range                 : Limited
    Color primaries             : BT.709
    Transfer characteristics    : BT.709
    Matrix coefficients         : BT.709

    Audio #1
    ID                          : 2
    Format                      : AC-3
    Format/Info                 : Audio Coding 3
    Commercial name             : Dolby Digital
    Codec ID                    : A_AC3
    Duration                    : 2 h 0 min
    Bit rate mode               : Constant
    Bit rate                    : 448 kb/s
    Channel(s)                  : 6 channels
    Channel layout              : L R C LFE Ls Rs
    Sampling rate               : 48.0 kHz
    Frame rate                  : 31.250 FPS (1536 SPF)
    Compression mode            : Lossy
    Stream size                 : 385 MiB (5%)
    Title                       : Español Latino [CinemaniaHDD]
    Language                    : Spanish
    Service kind                : Complete Main
    Default                     : Yes
    Forced                      : No

    Audio #2
    ID                          : 3
    Format                      : DTS
    Format/Info                 : Digital Theater Systems
    Codec ID                    : A_DTS
    Duration                    : 2 h 0 min
    Bit rate mode               : Constant
    Bit rate                    : 1 509 kb/s
    Channel(s)                  : 6 channels
    Channel layout              : C L R Ls Rs LFE
    Sampling rate               : 48.0 kHz
    Frame rate                  : 93.750 FPS (512 SPF)
    Bit depth                   : 24 bits
    Compression mode            : Lossy
    Stream size                 : 1.27 GiB (18%)
    Title                       : Ingles [CinemaniaHDD]
    Language                    : English
    Default                     : No
    Forced                      : No

    Text #1
    ID                          : 4
    Format                      : PGS
    Muxing mode                 : zlib
    Codec ID                    : S_HDMV/PGS
    Codec ID/Info               : Picture based subtitle format used on BDs/HD-DVDs
    Duration                    : 1 h 49 min
    Bit rate                    : 363 b/s
    Count of elements           : 30
    Stream size                 : 292 KiB (0%)
    Title                       : Forzados-PGS [CinemaniaHDD]
    Language                    : Spanish
    Default                     : Yes
    Forced                      : No

    Text #2
    ID                          : 5
    Format                      : PGS
    Muxing mode                 : zlib
    Codec ID                    : S_HDMV/PGS
    Codec ID/Info               : Picture based subtitle format used on BDs/HD-DVDs
    Duration                    : 1 h 59 min
    Bit rate                    : 29.8 kb/s
    Count of elements           : 2185
    Stream size                 : 25.4 MiB (0%)
    Title                       : Español-PGS [CinemaniaHDD]
    Language                    : Spanish
    Default                     : No
    Forced                      : No

    Text #3
    ID                          : 6
    Format                      : PGS
    Muxing mode                 : zlib
    Codec ID                    : S_HDMV/PGS
    Codec ID/Info               : Picture based subtitle format used on BDs/HD-DVDs
    Duration                    : 1 h 59 min
    Bit rate                    : 30.6 kb/s
    Count of elements           : 2387
    Stream size                 : 26.2 MiB (0%)
    Title                       : Ingles-PGS [CinemaniaHDD]
    Language                    : English
    Default                     : No
    Forced                      : No

    Text #4
    ID                          : 7
    Format                      : UTF-8
    Codec ID                    : S_TEXT/UTF8
    Codec ID/Info               : UTF-8 Plain Text
    Duration                    : 1 h 49 min
    Bit rate                    : 0 b/s
    Count of elements           : 14
    Stream size                 : 545 Bytes (0%)
    Title                       : Forzados-SRT [CinemaniaHDD]
    Language                    : Spanish
    Default                     : No
    Forced                      : No

    Text #5
    ID                          : 8
    Format                      : UTF-8
    Codec ID                    : S_TEXT/UTF8
    Codec ID/Info               : UTF-8 Plain Text
    Duration                    : 1 h 59 min
    Bit rate                    : 47 b/s
    Count of elements           : 1084
    Stream size                 : 41.1 KiB (0%)
    Title                       : Español-SRT [CinemaniaHDD]
    Language                    : Spanish
    Default                     : No
    Forced                      : No

    Menu
    00:00:00.000                : :Chapter 1
    00:04:56.171                : :Chapter 2
    00:07:45.757                : :Chapter 3
    00:10:31.464                : :Chapter 4
    00:14:43.299                : :Chapter 5
    00:17:15.826                : :Chapter 6
    00:21:31.457                : :Chapter 7
    00:25:37.536                : :Chapter 8
    00:29:11.458                : :Chapter 9
    00:34:10.882                : :Chapter 10
    00:36:51.584                : :Chapter 11
    00:39:36.165                : :Chapter 12
    00:43:57.593                : :Chapter 13
    00:49:59.663                : :Chapter 14
    00:51:45.894                : :Chapter 15
    00:56:34.057                : :Chapter 16
    00:59:17.012                : :Chapter 17
    01:03:33.643                : :Chapter 18
    01:08:01.286                : :Chapter 19
    01:12:56.163                : :Chapter 20
    01:18:34.960                : :Chapter 21
    01:20:28.866                : :Chapter 22
    01:23:11.737                : :Chapter 23
    01:30:21.958                : :Chapter 24
    01:32:01.641                : :Chapter 25
    01:33:06.498                : :Chapter 26
    01:36:06.010                : :Chapter 27
    01:37:59.374                : :Chapter 28
    01:41:39.885                : :Chapter 29
    01:47:22.811                : :Chapter 30
    01:54:13.972                : :Chapter 31
    01:58:34.316                : :Chapter 32

  • Peso: 6.94 GiB

Sinopsis

Descargar James Bond: Los Diamantes son Eternos (1971) Full HD 1080p Latino. James Bond se hace pasar por un traficante de diamantes para infiltrarse en una red de contrabando y pronto descubre un complot de su antiguo némesis Ernst Stavro Blofeld para utilizar los diamantes para construir un láser gigante. Bond tendrá que luchar contra su némesis por última vez, con el fin de detener el contrabando y evitar el plan de Blofeld de destruir Washington DC y extorsionar al mundo con supremacía nuclear.

RESUBIDO!

Ficha técnica

Video trailer de la película

Enlaces de descarga

Rip de Bluray

Descargar James Bond: Los Diamantes son Eternos (1971) Full HD 1080p Latino




Aportes de DPeliculasHDmega la pass es:dpeliculashdmega.org Aportes de CinemaniaHD la pass es:cinemaniahdd.com

Películas relacionadas

  • Mar de sangre (2022) WEB-DL 1080p Latino

    Mar de sangre (2022) WEB-DL 1080p Latino

    2022
    Mar de sangre (2022) WEB-DL 1080p Latino

    1h 27m 2022

    Descargar Mar de sangre (2022) WEB-DL 1080p Latino. Un grupo de amigos que disfrutan de un fin de semana...

    Director: James Nunn

    Género: Acción

    Actores: Thomas Michael Flynn

  • Noche sin paz (2022) PLACEBO Full HD 1080p Latino

    Noche sin paz (2022) PLACEBO Full HD 1080p Latino

    2022
    Noche sin paz (2022) PLACEBO Full HD 1080p Latino

    1h 41m 2022

    Descargar Noche sin paz (2022) PLACEBO Full HD 1080p Latino. Cuando un equipo de mercenarios irrumpe...

    Director: Tyshana Hobson

    Género: Acción

    Actores: Yoon Cha-Lee

  • Noche sin paz (2022) HD 1080p Latino

    Noche sin paz (2022) HD 1080p Latino

    2022
    Noche sin paz (2022) HD 1080p Latino

    1h 41m 2022

    Descargar Noche sin paz (2022) HD 1080p Latino. Cuando un equipo de mercenarios irrumpe en Nochebuena...

    Director: Tyshana Hobson

    Género: Acción

    Actores: Yoon Cha-Lee

  • Noche sin paz (2022) REMUX 1080p Latino

    Noche sin paz (2022) REMUX 1080p Latino

    2022
    Noche sin paz (2022) REMUX 1080p Latino

    1h 41m 2022

    Descargar Noche sin paz (2022) REMUX 1080p Latino. Cuando un equipo de mercenarios irrumpe en Nochebuena...

    Director: Tyshana Hobson

    Género: Acción

    Actores: Yoon Cha-Lee

  • Narvik (2022) NF WEB-DL 1080p Latino

    Narvik (2022) NF WEB-DL 1080p Latino

    2022
    Narvik (2022) NF WEB-DL 1080p Latino

    1h 48m 2022

    Descargar Narvik (2022) NF WEB-DL 1080p Latino. Abril de 1940. Los ojos del mundo están puestos en Narvik,...

    Director: Suzanne Svae-Johansen

    Género: Acción

    Actores: Torfinn Nag

descargar James Bond: Los Diamantes son Eternos (1971) Full HD 1080p Latino Full 1080p 1080p gratis, James Bond: Los Diamantes son Eternos (1971) Full HD 1080p Latino Full 1080p mega 1 link, James Bond: Los Diamantes son Eternos (1971) Full HD 1080p Latino Full 1080p pelicula completa, descargar James Bond: Los Diamantes son Eternos (1971) Full HD 1080p Latino Full 1080p gratis en mega.

James Bond: Los Diamantes son Eternos (1971) Full HD 1080p Latino pelicula full hd, James Bond: Los Diamantes son Eternos (1971) Full HD 1080p Latino mega latino, James Bond: Los Diamantes son Eternos (1971) Full HD 1080p Latino 4k latino, James Bond: Los Diamantes son Eternos (1971) Full HD 1080p Latino pelicula completa, James Bond: Los Diamantes son Eternos (1971) Full HD 1080p Latino descargar gratis, descargar James Bond: Los Diamantes son Eternos (1971) Full HD 1080p Latino pelicula latino, James Bond: Los Diamantes son Eternos (1971) Full HD 1080p Latino 1 link mega, James Bond: Los Diamantes son Eternos (1971) Full HD 1080p Latino 1 link google drive, James Bond: Los Diamantes son Eternos (1971) Full HD 1080p Latino hd 1080p latino.
Comentarios 0