×

¿Problemas para descargar con Mozilla, EDGE? Deshabilita la opción "Abrir vinculos en una pestaña nueva" tal como lo muestra ésta imagen.

Dexter: New Blood (2021-2022) Primera Temporada AMZN WEB-DL 1080p Latino

1.537 vistas

Información de Dexter: New Blood (2021-2022) Primera Temporada AMZN WEB-DL 1080p Latino

Datos de la película

  • Calidad: 1080p
  • Audio: Español Latino AC3 2.0 WEB-DL - Ingles AC3 5.1 WEB-DL
  • Subtitulos: Español Latino SRT- FORZADOS SRT
  • Resolución: 1920x1080
  • Formato: MKV
  • Codec: H.264
  • Encoder: cinemaniahdd
  • Mediainfo: Clic para Mostrar Datos Ver
  • Dexter. New Blood T01E01 AMZN WEB-DL 1080p Latino [CNMNHDD].mkv
    Format                      : Matroska
    Format version              : Version 4
    File size                   : 2.85 GiB
    Duration                    : 57 min 56 s
    Overall bit rate            : 7 037 kb/s
    Movie name                  : Dexter. New Blood T01E01 - CinemaniaHDD.Net
    Encoded date                : UTC 2021-11-09 03:45:25
    Writing application         : mkvmerge v56.1.0 ('My Friend') 64-bit
    Writing library             : libebml v1.4.2 + libmatroska v1.6.4

    Video
    ID                          : 1
    Format                      : AVC
    Format/Info                 : Advanced Video Codec
    Format profile              : High@L4
    Format settings             : CABAC / 4 Ref Frames
    Format settings, CABAC      : Yes
    Format settings, Reference  : 4 frames
    Codec ID                    : V_MPEG4/ISO/AVC
    Duration                    : 57 min 56 s
    Bit rate mode               : Constant
    Bit rate                    : 6 010 kb/s
    Nominal bit rate            : 10 000 kb/s
    Width                       : 1 920 pixels
    Height                      : 1 080 pixels
    Display aspect ratio        : 16:9
    Frame rate mode             : Constant
    Frame rate                  : 23.976 (24000/1001) FPS
    Color space                 : YUV
    Chroma subsampling          : 4:2:0
    Bit depth                   : 8 bits
    Scan type                   : Progressive
    Bits/(Pixel*Frame)          : 0.121
    Stream size                 : 2.43 GiB (85%)
    Title                       : CinemaniaHDD
    Default                     : Yes
    Forced                      : No
    Color range                 : Limited
    Color primaries             : BT.709
    Transfer characteristics    : BT.709
    Matrix coefficients         : BT.709

    Audio #1
    ID                          : 2
    Format                      : AC-3
    Format/Info                 : Audio Coding 3
    Commercial name             : Dolby Digital
    Codec ID                    : A_AC3
    Duration                    : 57 min 56 s
    Bit rate mode               : Constant
    Bit rate                    : 384 kb/s
    Channel(s)                  : 2 channels
    Channel layout              : L R
    Sampling rate               : 48.0 kHz
    Frame rate                  : 31.250 FPS (1536 SPF)
    Compression mode            : Lossy
    Stream size                 : 159 MiB (5%)
    Title                       : Español latino [CinemaniaHDD]
    Language                    : Spanish
    Service kind                : Complete Main
    Default                     : Yes
    Forced                      : No

    Audio #2
    ID                          : 3
    Format                      : E-AC-3
    Format/Info                 : Enhanced AC-3
    Commercial name             : Dolby Digital Plus
    Codec ID                    : A_EAC3
    Duration                    : 57 min 56 s
    Bit rate mode               : Constant
    Bit rate                    : 640 kb/s
    Channel(s)                  : 6 channels
    Channel layout              : L R C LFE Ls Rs
    Sampling rate               : 48.0 kHz
    Frame rate                  : 31.250 FPS (1536 SPF)
    Compression mode            : Lossy
    Delay relative to video     : 18 ms
    Stream size                 : 265 MiB (9%)
    Title                       : Inglés [CinemaniaHDD]
    Language                    : English
    Service kind                : Complete Main
    Default                     : No
    Forced                      : No

    Text #1
    ID                          : 4
    Format                      : UTF-8
    Codec ID                    : S_TEXT/UTF8
    Codec ID/Info               : UTF-8 Plain Text
    Duration                    : 48 min 52 s
    Bit rate                    : 0 b/s
    Count of elements           : 14
    Stream size                 : 262 Bytes (0%)
    Title                       : Forzados [CinemaniaHDD]
    Language                    : Spanish
    Default                     : Yes
    Forced                      : Yes

    Text #2
    ID                          : 5
    Format                      : UTF-8
    Codec ID                    : S_TEXT/UTF8
    Codec ID/Info               : UTF-8 Plain Text
    Duration                    : 53 min 29 s
    Bit rate                    : 45 b/s
    Count of elements           : 626
    Stream size                 : 17.8 KiB (0%)
    Title                       : Español latino [CinemaniaHDD]
    Language                    : Spanish
    Default                     : No
    Forced                      : No

    Text #3
    ID                          : 6
    Format                      : UTF-8
    Codec ID                    : S_TEXT/UTF8
    Codec ID/Info               : UTF-8 Plain Text
    Duration                    : 55 min 36 s
    Bit rate                    : 63 b/s
    Count of elements           : 825
    Stream size                 : 25.9 KiB (0%)
    Title                       : Inglés [CinemaniaHDD]
    Language                    : English
    Default                     : No
    Forced                      : No

     

     

  • Peso: 2.85 GiB Aprox ---- 25 GiB in 10 Chapters.

Sinopsis

En la última década, Dexter ha estado viviendo una vida tranquila y aislada lejos de las tentaciones de su pasado. Se ha adaptado a una nueva identidad y a la vida de un pequeño pueblo como un miembro querido de la comunidad de Iron Lake. Cuando un personaje local importante comienza a comportarse imprudentemente, y un misterioso extraño parece estar en el camino de Dexter, él se pregunta si puede continuar reprimiendo los impulsos asesinos de su Pasajero Oscuro. Estreno de temporada.

Ficha técnica

  • Titulo original: Dexter: New Blood
  • Fecha de lanzamiento: 07-11-2021 (US)
  • Género: Crimen, Drama, Series

Video trailer de la película

Enlaces de descarga

Rip de Bluray

Descargar Dexter: New Blood (2021-2022) Primera Temporada AMZN WEB-DL 1080p Latino




Aportes de DPeliculasHDmega la pass es:dpeliculashdmega.org Aportes de CinemaniaHD la pass es:cinemaniahdd.com
Guardado en : Crimen , Drama , Series

Películas relacionadas

  • Stromboli (2022) NF WEB-DL 1080p Latino

    Stromboli (2022) NF WEB-DL 1080p Latino

    2022
    Stromboli (2022) NF WEB-DL 1080p Latino

    1h 26m 2022

    Descargar Stromboli (2022) NF WEB-DL 1080p Latino. Sara, una mujer que se ha divorciado recientemente,...

    Director: Michiel van Erp

    Género: Drama

    Actores: Tim McInnerny

  • Infiesto (2023) NF WEB-DL 1080p Castellano

    Infiesto (2023) NF WEB-DL 1080p Castellano

    2023
    Infiesto (2023) NF WEB-DL 1080p Castellano

    1h 36m 2023

    Descargar Infiesto (2023) NF WEB-DL 1080p Castellano. Mientras el coronavirus trastoca sus vidas, dos...

    Director: Patxi Amezcua

    Género: Crimen

    Actores: Luis Zahera

  • Espiritu Libre (2023) NF WEB-DL 1080p Latino

    Espiritu Libre (2023) NF WEB-DL 1080p Latino

    2023
    Espiritu Libre (2023) NF WEB-DL 1080p Latino

    1h 49m 2023

    Descargar Espiritu Libre (2023) NF WEB-DL 1080p Latino. La película se basa en la increíble historia...

    Director: Sarah Spillane

    Género: Aventura

    Actores: Vivien Turner

descargar Dexter: New Blood (2021-2022) Primera Temporada AMZN WEB-DL 1080p Latino 1080p 1080p gratis, Dexter: New Blood (2021-2022) Primera Temporada AMZN WEB-DL 1080p Latino 1080p mega 1 link, Dexter: New Blood (2021-2022) Primera Temporada AMZN WEB-DL 1080p Latino 1080p serie completa, descargar Dexter: New Blood (2021-2022) Primera Temporada AMZN WEB-DL 1080p Latino 1080p gratis en mega.

Dexter: New Blood (2021-2022) Primera Temporada AMZN WEB-DL 1080p Latino pelicula full hd, Dexter: New Blood (2021-2022) Primera Temporada AMZN WEB-DL 1080p Latino mega latino, Dexter: New Blood (2021-2022) Primera Temporada AMZN WEB-DL 1080p Latino 4k latino, Dexter: New Blood (2021-2022) Primera Temporada AMZN WEB-DL 1080p Latino pelicula completa, Dexter: New Blood (2021-2022) Primera Temporada AMZN WEB-DL 1080p Latino descargar gratis, descargar Dexter: New Blood (2021-2022) Primera Temporada AMZN WEB-DL 1080p Latino pelicula latino, Dexter: New Blood (2021-2022) Primera Temporada AMZN WEB-DL 1080p Latino 1 link mega, Dexter: New Blood (2021-2022) Primera Temporada AMZN WEB-DL 1080p Latino 1 link google drive, Dexter: New Blood (2021-2022) Primera Temporada AMZN WEB-DL 1080p Latino hd 1080p latino.
Comentarios 9
  • ocpgaiden - 28 enero, 2022

    Gracias por toda la temporada 9 de Dexter, la mejor serie, saludos

    • CinemaniaHDD - 31 enero, 2022

      de nada. pero esta serie no es una 9 temporada de la ya finalizada serie en el 2013.

  • ocpgaiden - 14 diciembre, 2021

    Gracias por el capitulo 6, saludos

  • heber - 11 diciembre, 2021

    Muchimas gracias por tan excelnte serie la esperaba con ansias , solamente tengo una pregunta subiras capitulo 4 y 5 con audio latino?

    • CinemaniaHDD - 12 diciembre, 2021

      Hola, no lo sabemos aun. ya showtime dejo de subir el audio latino en la plataforma de donde se extrajo los primero s capitulos.

  • Dark Venom - 09 diciembre, 2021

    Porque los capitulos 3 y 4 no estan doblados y solamente estan subtitulados?

    • CinemaniaHDD - 09 diciembre, 2021

      ya dejaron de sacar el doblaje en la plataforma showtime, ya ahora nomas toca la version de paramount+

  • ocpgaiden - 14 noviembre, 2021

    Gracias por el capitulo 2, saludos

  • ocpgaiden - 09 noviembre, 2021

    La mejor serie que hay, gracias y saludos