×

¿Problemas para descargar con Mozilla, EDGE? Deshabilita la opción "Abrir vinculos en una pestaña nueva" tal como lo muestra ésta imagen.

Dexter: New Blood (Mini Serie 2021-2022) AMZN WEB-DL 1080p Latino

2.062 vistas

Información de Dexter: New Blood (Mini Serie 2021-2022) AMZN WEB-DL 1080p Latino

Datos de la película

  • Calidad: 1080p
  • Audio: Español Latino AC3 2.0 WEB-DL - Ingles AC3 5.1 WEB-DL
  • Subtitulos: Español Latino SRT- FORZADOS SRT
  • Resolución: 1920x1080
  • Formato: MKV
  • Codec: H.264
  • Encoder: cinemaniahdd
  • Mediainfo: Clic para Mostrar Datos Ver
  • Dexter New Blood T01E01 AMZN WEB-DL 1080p Latino [CNMNHDD].mkv
    Format                      : Matroska
    Format version              : Version 4
    File size                   : 3.49 GiB
    Duration                    : 57 min 43 s
    Overall bit rate            : 8 646 kb/s
    Movie name                  : Dexter New Blood S01E01 - Cold Snap [1080p] - CinemaniaHDD.Net
    Encoded date                : UTC 2023-12-23 18:48:13
    Writing application         : mkvmerge v56.1.0 ('My Friend') 64-bit
    Writing library             : libebml v1.4.2 + libmatroska v1.6.4

    Video
    ID                          : 1
    Format                      : AVC
    Format/Info                 : Advanced Video Codec
    Format profile              : High@L4
    Format settings             : CABAC / 4 Ref Frames
    Format settings, CABAC      : Yes
    Format settings, Reference  : 4 frames
    Codec ID                    : V_MPEG4/ISO/AVC
    Duration                    : 57 min 43 s
    Bit rate mode               : Constant
    Bit rate                    : 7 395 kb/s
    Nominal bit rate            : 10 000 kb/s
    Width                       : 1 920 pixels
    Height                      : 1 080 pixels
    Display aspect ratio        : 16:9
    Frame rate mode             : Constant
    Frame rate                  : 23.976 (24000/1001) FPS
    Color space                 : YUV
    Chroma subsampling          : 4:2:0
    Bit depth                   : 8 bits
    Scan type                   : Progressive
    Bits/(Pixel*Frame)          : 0.149
    Stream size                 : 2.98 GiB (86%)
    Title                       : CinemaniaHDD
    Default                     : Yes
    Forced                      : No
    Color range                 : Limited
    Color primaries             : BT.709
    Transfer characteristics    : BT.709
    Matrix coefficients         : BT.709

    Audio #1
    ID                          : 2
    Format                      : AC-3
    Format/Info                 : Audio Coding 3
    Commercial name             : Dolby Digital
    Codec ID                    : A_AC3
    Duration                    : 57 min 43 s
    Bit rate mode               : Constant
    Bit rate                    : 384 kb/s
    Channel(s)                  : 2 channels
    Channel layout              : L R
    Sampling rate               : 48.0 kHz
    Frame rate                  : 31.250 FPS (1536 SPF)
    Compression mode            : Lossy
    Stream size                 : 159 MiB (4%)
    Title                       : Español Latino [CinemaniaHDD]
    Language                    : Spanish
    Service kind                : Complete Main
    Default                     : Yes
    Forced                      : No

    Audio #2
    ID                          : 3
    Format                      : E-AC-3
    Format/Info                 : Enhanced AC-3
    Commercial name             : Dolby Digital Plus
    Codec ID                    : A_EAC3
    Duration                    : 57 min 43 s
    Bit rate mode               : Constant
    Bit rate                    : 224 kb/s
    Channel(s)                  : 2 channels
    Channel layout              : L R
    Sampling rate               : 48.0 kHz
    Frame rate                  : 31.250 FPS (1536 SPF)
    Compression mode            : Lossy
    Stream size                 : 92.5 MiB (3%)
    Title                       : Español latino / E-AC3 [CinemaniaHDD]
    Language                    : Spanish
    Service kind                : Complete Main
    Default                     : No
    Forced                      : No

    Audio #3
    ID                          : 4
    Format                      : E-AC-3
    Format/Info                 : Enhanced AC-3
    Commercial name             : Dolby Digital Plus
    Codec ID                    : A_EAC3
    Duration                    : 57 min 43 s
    Bit rate mode               : Constant
    Bit rate                    : 640 kb/s
    Channel(s)                  : 6 channels
    Channel layout              : L R C LFE Ls Rs
    Sampling rate               : 48.0 kHz
    Frame rate                  : 31.250 FPS (1536 SPF)
    Compression mode            : Lossy
    Stream size                 : 264 MiB (7%)
    Title                       : Inglés [CinemaniaHDD]
    Language                    : English
    Service kind                : Complete Main
    Default                     : No
    Forced                      : No

    Text #1
    ID                          : 5
    Format                      : UTF-8
    Codec ID                    : S_TEXT/UTF8
    Codec ID/Info               : UTF-8 Plain Text
    Duration                    : 48 min 52 s
    Bit rate                    : 0 b/s
    Count of elements           : 13
    Stream size                 : 242 Bytes (0%)
    Title                       : Forzados [CinemaniaHDD]
    Language                    : Spanish
    Default                     : Yes
    Forced                      : Yes

    Text #2
    ID                          : 6
    Format                      : UTF-8
    Codec ID                    : S_TEXT/UTF8
    Codec ID/Info               : UTF-8 Plain Text
    Duration                    : 53 min 29 s
    Bit rate                    : 44 b/s
    Count of elements           : 625
    Stream size                 : 17.6 KiB (0%)
    Title                       : Español Latino [CinemaniaHDD]
    Language                    : Spanish
    Default                     : No
    Forced                      : No

    Text #3
    ID                          : 7
    Format                      : UTF-8
    Codec ID                    : S_TEXT/UTF8
    Codec ID/Info               : UTF-8 Plain Text
    Duration                    : 55 min 36 s
    Bit rate                    : 63 b/s
    Count of elements           : 825
    Stream size                 : 25.9 KiB (0%)
    Title                       : Inglés [CinemaniaHDD]
    Language                    : English
    Default                     : No
    Forced                      : No

    Menu
    00:00:00.000                : 1. Studio Logo
    00:00:15.000                : Scene 2
    00:08:01.000                : Scene 3
    00:16:10.000                : Scene 4
    00:24:21.000                : Scene 5
    00:32:35.000                : Scene 6
    00:42:30.000                : Scene 7
    00:50:37.000                : Scene 8
    00:56:15.000                : 9. End Credits

     

  • Peso: 3.49 GiB Aprox ---- 29 GiB in 10 Chapters.

Sinopsis

En la última década, Dexter ha estado viviendo una vida tranquila y aislada lejos de las tentaciones de su pasado. Se ha adaptado a una nueva identidad y a la vida de un pequeño pueblo como un miembro querido de la comunidad de Iron Lake. Cuando un personaje local importante comienza a comportarse imprudentemente, y un misterioso extraño parece estar en el camino de Dexter, él se pregunta si puede continuar reprimiendo los impulsos asesinos de su Pasajero Oscuro. Estreno de temporada.

 

RE-SUBIDO

Ficha técnica

  • Titulo original: Dexter: New Blood
  • Fecha de lanzamiento: 07-11-2021 (US)
  • Género: Crimen, Drama, Series

Video trailer de la película

Enlaces de descarga

Rip de Bluray

Descargar Dexter: New Blood (Mini Serie 2021-2022) AMZN WEB-DL 1080p Latino




Aportes de DPeliculasHDmega la pass es:dpeliculashdmega.org Aportes de CinemaniaHD la pass es:cinemaniahdd.com Aportes recientes:cinemaniahdd.net
Guardado en : Crimen , Drama , Series

Películas relacionadas

  • Red de venganza (2023) HD 1080p Latino

    Red de venganza (2023) HD 1080p Latino

    2023
    Red de venganza (2023) HD 1080p Latino

    1h 25m 2023

    Descargar Red de venganza (2023) HD 1080p Latino. Analiza los problemas que surgen entre una madre (Summer...

    Director: Amy Redford

    Género: Drama

    Actores: Summer Phoenix

  • Red de venganza (2023) REMUX 1080p Latino

    Red de venganza (2023) REMUX 1080p Latino

    2023
    Red de venganza (2023) REMUX 1080p Latino

    1h 25m 2023

    Descargar Red de venganza (2023) REMUX 1080p Latino. Analiza los problemas que surgen entre una madre...

    Director: Amy Redford

    Género: Drama

    Actores: Summer Phoenix

  • Recuerdos Mortales (2024) WEB-DL 1080p Latino

    Recuerdos Mortales (2024) WEB-DL 1080p Latino

    2024
    Recuerdos Mortales (2024) WEB-DL 1080p Latino

    1h 52m 2024

    Descargar Recuerdos Mortales (2024) WEB-DL 1080p Latino. Después de someterse a un tratamiento de vanguardia...

    Director: Adam Cooper

    Género: Crimen

    Actores: Tommy Flanagan

descargar Dexter: New Blood (Mini Serie 2021-2022) AMZN WEB-DL 1080p Latino 1080p 1080p gratis, Dexter: New Blood (Mini Serie 2021-2022) AMZN WEB-DL 1080p Latino 1080p mega 1 link, Dexter: New Blood (Mini Serie 2021-2022) AMZN WEB-DL 1080p Latino 1080p serie completa, descargar Dexter: New Blood (Mini Serie 2021-2022) AMZN WEB-DL 1080p Latino 1080p gratis en mega.

Dexter: New Blood (Mini Serie 2021-2022) AMZN WEB-DL 1080p Latino pelicula full hd, Dexter: New Blood (Mini Serie 2021-2022) AMZN WEB-DL 1080p Latino mega latino, Dexter: New Blood (Mini Serie 2021-2022) AMZN WEB-DL 1080p Latino 4k latino, Dexter: New Blood (Mini Serie 2021-2022) AMZN WEB-DL 1080p Latino pelicula completa, Dexter: New Blood (Mini Serie 2021-2022) AMZN WEB-DL 1080p Latino descargar gratis, descargar Dexter: New Blood (Mini Serie 2021-2022) AMZN WEB-DL 1080p Latino pelicula latino, Dexter: New Blood (Mini Serie 2021-2022) AMZN WEB-DL 1080p Latino 1 link mega, Dexter: New Blood (Mini Serie 2021-2022) AMZN WEB-DL 1080p Latino 1 link google drive, Dexter: New Blood (Mini Serie 2021-2022) AMZN WEB-DL 1080p Latino hd 1080p latino.
Comentarios 9