Deuda de sangre (2002) Full 1080p Latino

1.140 vistas
1 estrella2 estrellas3 estrellas4 estrellas5 estrellas (Ninguna valoración todavía)
Cargando…

Información de Deuda de sangre (2002) Full 1080p Latino

Datos de la película

  • Calidad: Full 1080p
  • Audio: Español Latino AC3 2.0 BLURAY - Ingles DTS 5.1 BLURAY
  • Subtitulos: Español Latino PGS - Ingles PGS
  • Resolución: 1920X1080
  • Formato: MKV
  • Codec: H.264
  • Encoder: Dpelis
  • Mediainfo: Clic para Mostrar Datos Ver
  • Format                                   : Matroska
    Format version                           : Version 4 / Version 2
    File size                                : 4.85 GiB
    Duration                                 : 1 h 50 min
    Overall bit rate                         : 6 283 kb/s
    Movie name                               : dpeliculashdmega.org
    Encoded date                             : UTC 2017-11-29 02:40:20 / UTC 2017-11-27T20:40:07Z
    Writing application                      : mkvmerge v15.0.0 ('Duel with the Devil') 64-bit
    Writing library                          : libebml v1.3.5 + libmatroska v1.4.5 / Lavf57.7.2

    Video
    ID                                       : 1
    Format                                   : AVC
    Format/Info                              : Advanced Video Codec
    Format profile                           : High@L4.1
    Format settings                          : CABAC / 4 Ref Frames
    Format settings, CABAC                   : Yes
    Format settings, RefFrames               : 4 frames
    Codec ID                                 : V_MPEG4/ISO/AVC
    Duration                                 : 1 h 50 min
    Bit rate                                 : 4 457 kb/s
    Width                                    : 1 920 pixels
    Height                                   : 1 080 pixels
    Display aspect ratio                     : 16:9
    Frame rate mode                          : Constant
    Frame rate                               : 23.976 (24000/1001) FPS
    Color space                              : YUV
    Chroma subsampling                       : 4:2:0
    Bit depth                                : 8 bits
    Scan type                                : Progressive
    Bits/(Pixel*Frame)                       : 0.090
    Stream size                              : 3.44 GiB (71%)
    Title                                    : Deuda de sangre (2002) Full 1080p Latino
    Writing library                          : x264 core 148 r2708 86b7198
    Encoding settings                        : cabac=1 / ref=4 / deblock=1:0:0 / analyse=0x3:0x133 / me=esa / subme=10 / psy=1 / psy_rd=1.00:0.00 / mixed_ref=1 / me_range=24 / chroma_me=1 / trellis=2 / 8x8dct=1 / cqm=0 / deadzone=21,11 / fast_pskip=1 / chroma_qp_offset=-2 / threads=34 / lookahead_threads=5 / sliced_threads=0 / nr=0 / decimate=1 / interlaced=0 / bluray_compat=0 / constrained_intra=0 / bframes=8 / b_pyramid=2 / b_adapt=2 / b_bias=0 / direct=3 / weightb=1 / open_gop=0 / weightp=2 / keyint=240 / keyint_min=24 / scenecut=40 / intra_refresh=0 / rc_lookahead=60 / rc=crf / mbtree=1 / crf=20.0 / qcomp=0.60 / qpmin=0 / qpmax=69 / qpstep=4 / vbv_maxrate=62500 / vbv_bufsize=78125 / crf_max=0.0 / nal_hrd=none / filler=0 / ip_ratio=1.40 / aq=1:1.00
    Language                                 : English
    Default                                  : Yes
    Forced                                   : No
    Color range                              : Limited
    Color primaries                          : BT.709
    Transfer characteristics                 : BT.709
    Matrix coefficients                      : BT.709
    Statistics Tags Issue                    : mkvmerge v15.0.0 ('Duel with the Devil') 64-bit 2017-11-29 02:40:20 / mkvmerge v15.0.0 ('Duel with the Devil') 64-bit 2017-11-29 02:40:20 / UTC 2017-11-27T20:40:07Z
    FromStats_BitRate                        : 4552171
    FromStats_Duration                       : 01:50:29.582000000
    FromStats_FrameCount                     : 158951
    FromStats_StreamSize                     : 3772374468

    Audio #1
    ID                                       : 2
    Format                                   : AC-3
    Format/Info                              : Audio Coding 3
    Mode                                     : Dolby Digital
    Format settings, Endianness              : Big
    Codec ID                                 : A_AC3
    Duration                                 : 1 h 50 min
    Bit rate mode                            : Constant
    Bit rate                                 : 192 kb/s
    Channel(s)                               : 2 channels
    Channel positions                        : Front: L R
    Sampling rate                            : 48.0 kHz
    Frame rate                               : 31.250 FPS (1536 SPF)
    Bit depth                                : 16 bits
    Compression mode                         : Lossy
    Stream size                              : 152 MiB (3%)
    Title                                    : Latino-AC3
    Language                                 : Spanish
    Service kind                             : Complete Main
    Default                                  : Yes
    Forced                                   : No
    Statistics Tags Issue                    : mkvmerge v15.0.0 ('Duel with the Devil') 64-bit 2017-11-29 02:40:20 / mkvmerge v15.0.0 ('Duel with the Devil') 64-bit 2017-11-29 02:40:20 / UTC 2017-11-27T20:40:07Z
    FromStats_BitRate                        : 192000
    FromStats_Duration                       : 01:50:29.632000000
    FromStats_FrameCount                     : 207176
    FromStats_StreamSize                     : 159111168

    Audio #2
    ID                                       : 3
    Format                                   : DTS
    Format/Info                              : Digital Theater Systems
    Mode                                     : 16
    Format settings, Endianness              : Big
    Codec ID                                 : A_DTS
    Duration                                 : 1 h 50 min
    Bit rate mode                            : Constant
    Bit rate                                 : 1 509 kb/s
    Channel(s)                               : 6 channels
    Channel positions                        : Front: L C R, Side: L R, LFE
    Sampling rate                            : 48.0 kHz
    Frame rate                               : 93.750 FPS (512 SPF)
    Bit depth                                : 24 bits
    Compression mode                         : Lossy
    Stream size                              : 1.16 GiB (24%)
    Title                                    : Ingles-AC3
    Language                                 : English
    Default                                  : No
    Forced                                   : No
    Statistics Tags Issue                    : mkvmerge v15.0.0 ('Duel with the Devil') 64-bit 2017-11-29 02:40:20 / mkvmerge v15.0.0 ('Duel with the Devil') 64-bit 2017-11-29 02:40:20 / UTC 2017-11-27T20:40:07Z
    FromStats_BitRate                        : 1508999
    FromStats_Duration                       : 01:50:29.622000000
    FromStats_FrameCount                     : 621527
    FromStats_StreamSize                     : 1250512324

    Text #1
    ID                                       : 4
    Format                                   : PGS
    Muxing mode                              : zlib
    Codec ID                                 : S_HDMV/PGS
    Codec ID/Info                            : Picture based subtitle format used on BDs/HD-DVDs
    Language                                 : English
    Default                                  : No
    Forced                                   : No
    Statistics Tags Issue                    : mkvmerge v15.0.0 ('Duel with the Devil') 64-bit 2017-11-29 02:40:20 / mkvmerge v15.0.0 ('Duel with the Devil') 64-bit 2017-11-29 02:40:20 / UTC 2017-11-27T20:40:07Z
    FromStats_BitRate                        : 31152
    FromStats_Duration                       : 01:50:07.267000000
    FromStats_FrameCount                     : 2544
    FromStats_StreamSize                     : 25729370

    Text #2
    ID                                       : 5
    Format                                   : PGS
    Muxing mode                              : zlib
    Codec ID                                 : S_HDMV/PGS
    Codec ID/Info                            : Picture based subtitle format used on BDs/HD-DVDs
    Language                                 : Spanish
    Default                                  : No
    Forced                                   : No
    Statistics Tags Issue                    : mkvmerge v15.0.0 ('Duel with the Devil') 64-bit 2017-11-29 02:40:20 / mkvmerge v15.0.0 ('Duel with the Devil') 64-bit 2017-11-29 02:40:20 / UTC 2017-11-27T20:40:07Z
    FromStats_BitRate                        : 30557
    FromStats_Duration                       : 01:49:09.376000000
    FromStats_FrameCount                     : 2482
    FromStats_StreamSize                     : 25016833

    Menu
    00:00:00.000                             : :Chapter 1
    00:03:49.604                             : :Chapter 2
    00:07:19.606                             : :Chapter 3
    00:10:25.125                             : :Chapter 4
    00:13:40.236                             : :Chapter 5
    00:19:00.640                             : :Chapter 6
    00:22:06.075                             : :Chapter 7
    00:23:55.893                             : :Chapter 8
    00:28:42.012                             : :Chapter 9
    00:31:01.193                             : :Chapter 10
    00:32:58.435                             : :Chapter 11
    00:37:37.213                             : :Chapter 12
    00:43:12.840                             : :Chapter 13
    00:44:43.222                             : :Chapter 14
    00:50:31.695                             : :Chapter 15
    00:52:23.432                             : :Chapter 16
    00:56:06.864                             : :Chapter 17
    01:00:48.103                             : :Chapter 18
    01:04:44.255                             : :Chapter 19
    01:09:39.926                             : :Chapter 20
    01:13:45.129                             : :Chapter 21
    01:15:38.284                             : :Chapter 22
    01:17:17.842                             : :Chapter 23
    01:20:36.165                             : :Chapter 24
    01:23:00.267                             : :Chapter 25
    01:27:13.270                             : :Chapter 26
    01:33:13.880                             : :Chapter 27
    01:36:14.894                             : :Chapter 28
    01:39:45.980                             : :Chapter 29
    01:42:33.814                             : :Chapter 30
    01:44:03.237                             : :Chapter 31
    01:46:09.363                             : :Chapter 32

  • Peso: 4.85 GiB

Sinopsis

Terry McCaleb, un veterano investigador del FBI, anda tras la pista de un psicópata apodado por lo medios de comunicación “el asesino del código”. Tras el último asesinato, Terry visita la escena del crimen y lo descubre entre la multitud; comienza entonces una persecución que le provocará un infarto y su retirada del servicio activo.

Ficha técnica

Video trailer de la película

Enlaces de descarga

Rip de Bluray

Descargar Deuda de sangre (2002) Full 1080p Latino




Aportes de DPeliculasHDmega la pass es:dpeliculashdmega.org Aportes de CinemaniaHD la pass es:cinemaniahdd.com

Películas relacionadas

  • La piel fria (2017) 1080p Latino

    2017
    La piel fria (2017) 1080p Latino

    0.0 1h 41m 2017

    En una isla perdida en medio del océano, dos hombres se defienden, noche tras noche, resguardados en...

    Director: Xavier Gens

    Género: Ciencia ficción

    Actores: Winslow Iwaki

  • Calibre (2018) Web-DL 1080p Latino

    2018
    Calibre (2018) Web-DL 1080p Latino

    0.0 1h 41m 2018

    Descargar Calibre (2018) Web-DL 1080p Latino, Mega, Google Drive. Durante un fin de semana en los highland...

    Director: Matt Palmer

    Género: Suspense

    Actores: Tony Curran

  • Cam (2018) NF 1080p Latino

    2018
    Cam (2018) NF 1080p Latino

    0.0 1h 34m 2018

    Alice es una camgirl con un código inamovible, que le permite mantener una cierta distancia con los...

    Director: Rachel Penner

    Género: Suspense

    Actores: Samantha Robinson

  • El Justiciero 2 (2018) Full 1080p Latino

    2018
    El Justiciero 2 (2018) Full 1080p Latino

    5.0 2h 0m 2018

    Descargar El Justiciero 2 (2018) Full 1080p Latino, Mega, Google Drive. Robert McCall (Denzel Washington)...

    Director: Donald Sparks

    Género: Acción

    Actores: Wesley Pereira

Comentarios 0