Detroit (2017) 1080p Latino

567 vistas
1 estrella2 estrellas3 estrellas4 estrellas5 estrellas (Ninguna valoración todavía)
Cargando…

Información de Detroit (2017) 1080p Latino

Datos de la película

  • Calidad: 1080p
  • Audio: Español Latino AC3 2.0 DVD - Ingles AC3 5.1 BLURAY
  • Subtitulos: Español Latino SRT- FORZADOS SRT
  • Resolución: 1920x1036
  • Formato: MKV
  • Codec: H.264
  • Encoder: cinemaniahdd
  • Mediainfo: Clic para Mostrar Datos Ver
  • Detroit (2018) 1080p Latino.mkv
    Format                      : Matroska
    Format version              : Version 4
    File size                   : 4.11 GiB
    Duration                    : 2 h 23 min
    Overall bit rate            : 4 112 kb/s
    Movie name                  : CinemaniaHDD.Net
    Encoded date                : UTC 2019-03-13 04:59:12
    Writing application         : mkvmerge v22.0.0 ('At The End Of The World') 64-bit
    Writing library             : libebml v1.3.5 + libmatroska v1.4.8 / Lavf58.20.100

    Video
    ID                          : 1
    Format                      : AVC
    Format/Info                 : Advanced Video Codec
    Format profile              : [email protected]
    Format settings             : CABAC / 4 Ref Frames
    Format settings, CABAC      : Yes
    Format settings, ReFrames   : 4 frames
    Codec ID                    : V_MPEG4/ISO/AVC
    Duration                    : 2 h 23 min
    Bit rate                    : 3 500 kb/s
    Width                       : 1 920 pixels
    Height                      : 1 036 pixels
    Display aspect ratio        : 1.85:1
    Frame rate mode             : Constant
    Frame rate                  : 23.976 (24000/1001) FPS
    Color space                 : YUV
    Chroma subsampling          : 4:2:0
    Bit depth                   : 8 bits
    Scan type                   : Progressive
    Bits/(Pixel*Frame)          : 0.073
    Stream size                 : 3.40 GiB (83%)
    Title                       : CinemaniaHDD.Net
    Writing library             : x264 core 157 r2935 545de2f
    Encoding settings           : cabac=1 / ref=4 / deblock=1:0:0 / analyse=0x1:0x111 / me=hex / subme=8 / psy=1 / psy_rd=1.00:0.00 / mixed_ref=1 / me_range=16 / chroma_me=1 / trellis=2 / 8x8dct=0 / cqm=0 / deadzone=21,11 / fast_pskip=1 / chroma_qp_offset=-2 / threads=32 / lookahead_threads=5 / sliced_threads=0 / nr=0 / decimate=1 / interlaced=0 / bluray_compat=0 / constrained_intra=0 / bframes=3 / b_pyramid=2 / b_adapt=1 / b_bias=0 / direct=3 / weightb=1 / open_gop=0 / weightp=2 / keyint=240 / keyint_min=24 / scenecut=40 / intra_refresh=0 / rc_lookahead=50 / rc=abr / mbtree=1 / bitrate=3500 / ratetol=1.0 / qcomp=0.60 / qpmin=0 / qpmax=69 / qpstep=4 / vbv_maxrate=20000 / vbv_bufsize=25000 / nal_hrd=none / filler=0 / ip_ratio=1.40 / aq=1:1.00
    Default                     : Yes
    Forced                      : No
    Color range                 : Limited
    Color primaries             : BT.709
    Transfer characteristics    : BT.709
    Matrix coefficients         : BT.709

    Audio #1
    ID                          : 2
    Format                      : AC-3
    Format/Info                 : Audio Coding 3
    Commercial name             : Dolby Digital
    Codec ID                    : A_AC3
    Duration                    : 2 h 23 min
    Bit rate mode               : Constant
    Bit rate                    : 256 kb/s
    Channel(s)                  : 2 channels
    Channel layout              : L R
    Sampling rate               : 48.0 kHz
    Frame rate                  : 31.250 FPS (1536 SPF)
    Bit depth                   : 16 bits
    Compression mode            : Lossy
    Delay relative to video     : -5 ms
    Stream size                 : 262 MiB (6%)
    Title                       : CinemaniaHDD.Net
    Language                    : Spanish
    Service kind                : Complete Main
    Default                     : Yes
    Forced                      : No

    Audio #2
    ID                          : 3
    Format                      : AC-3
    Format/Info                 : Audio Coding 3
    Commercial name             : Dolby Digital
    Codec ID                    : A_AC3
    Duration                    : 2 h 23 min
    Bit rate mode               : Constant
    Bit rate                    : 448 kb/s
    Channel(s)                  : 6 channels
    Channel layout              : L R C LFE Ls Rs
    Sampling rate               : 48.0 kHz
    Frame rate                  : 31.250 FPS (1536 SPF)
    Bit depth                   : 16 bits
    Compression mode            : Lossy
    Delay relative to video     : -5 ms
    Stream size                 : 458 MiB (11%)
    Title                       : CinemaniaHDD.Net
    Language                    : English
    Service kind                : Complete Main
    Default                     : No
    Forced                      : No

    Text #1
    ID                          : 4
    Format                      : UTF-8
    Codec ID                    : S_TEXT/UTF8
    Codec ID/Info               : UTF-8 Plain Text
    Duration                    : 2 h 6 min
    Bit rate                    : 0 b/s
    Count of elements           : 15
    Stream size                 : 356 Bytes (0%)
    Title                       : Forzados - CinemaniaHDD.Net
    Language                    : Spanish
    Default                     : Yes
    Forced                      : Yes

    Text #2
    ID                          : 5
    Format                      : UTF-8
    Codec ID                    : S_TEXT/UTF8
    Codec ID/Info               : UTF-8 Plain Text
    Duration                    : 2 h 14 min
    Bit rate                    : 61 b/s
    Count of elements           : 1966
    Stream size                 : 60.9 KiB (0%)
    Title                       : CinemaniaHDD.Net
    Language                    : Spanish
    Default                     : No
    Forced                      : No

    Menu
    00:00:00.000                : :00:00:00.000
    00:04:02.784                : :00:04:02.784
    00:09:08.548                : :00:09:08.548
    00:15:03.653                : :00:15:03.569
    00:25:58.348                : :00:25:58.348
    00:32:21.606                : :00:32:21.606
    00:36:06.081                : :00:36:06.081
    00:41:01.751                : :00:41:01.751
    00:49:54.950                : :00:49:54.950
    00:55:24.071                : :00:55:24.071
    00:58:56.241                : :00:58:56.241
    01:06:06.921                : :01:06:06.921
    01:10:42.155                : :01:10:42.155
    01:14:16.369                : :01:14:16.369
    01:25:02.806                : :01:25:02.806
    01:28:46.571                : :01:28:46.571
    01:32:57.322                : :01:32:57.322
    01:39:37.430                : :01:39:37.430
    01:48:53.152                : :01:48:53.152
    01:52:10.974                : :01:52:10.974
    01:59:15.523                : :01:59:15.523
    02:04:45.728                : :02:04:45.728
    02:10:13.222                : :02:10:13.222
    02:14:53.168                : :02:14:53.085

  • Peso: 4.11 GiB

Sinopsis

Film ambientado durante los disturbios raciales que sacudieron la ciudad de Detroit, en el estado de Michigan, en julio de 1967. Todo comenzó con una redada de la policía en un bar nocturno sin licencia, que acabó convirtiéndose en una de las revueltas civiles más violentas de los Estados Unidos.

Ficha técnica

Video trailer de la película

Enlaces de descarga

Rip de Bluray

Descargar Detroit (2017) 1080p Latino




Aportes de DPeliculasHDmega la pass es:dpeliculashdmega.org Aportes de CinemaniaHD la pass es:cinemaniahdd.com
Guardado en : Crimen , Drama , Historia , Suspense

Películas relacionadas

  • Las Dos Reinas (2018) 4K UHD HDR Latino

    2018
    Las Dos Reinas (2018) 4K UHD HDR Latino

    0.0 2h 5m 2018

    Descargar Las Dos Reinas (2018) 4K UHD HDR Latino, Mega, Google Drive. Dos mujeres rivales en el poder...

    Director: Josie Rourke

    Género: 4K HDR

    Actores: Thom Petty

  • The Mule (2018) 1080p Latino

    2018
    The Mule (2018) 1080p Latino

    0.0 1h 56m 2018

    A Earl Stone (Eastwood), un octogenario que está en quiebra, solo, y que se enfrenta a la ejecución...

    Director: Clint Eastwood

    Género: Crimen

    Actores: Victor Rasuk

  • The mule (2018) WEB-DL 1080p Latino

    2018
    The mule (2018) WEB-DL 1080p Latino

    0.0 1h 56m 2018

    A Earl Stone (Eastwood), un octogenario que está en quiebra, solo, y que se enfrenta a la ejecución...

    Director: Clint Eastwood

    Género: Crimen

    Actores: Victor Rasuk

  • Robin Hood (2018) 4K UHD HDR Latino

    2018
    Robin Hood (2018) 4K UHD HDR Latino

    0.0 1h 56m 2018

    Descargar Robin Hood (2018) 4K UHD HDR Latino, Mega, Google Drive. Cuando el joven Robin Hood (Taron...

    Director: Otto Bathurst

    Género: 4K HDR

    Actores: Yasen Atour

  • Nace Una Estrella (2018) 4K UHD HDR Latino

    2018
    Nace Una Estrella (2018) 4K UHD HDR Latino

    0.0 2h 25m 2018

    Descargar Nace Una Estrella (2018) 4K UHD HDR Latino, Mega, Google Drive. Jackson Maine es una estrella...

    Director: Bradley Cooper

    Género: 4K HDR

    Actores: Willam Belli

Comentarios 0