×

¿Problemas para descargar con Mozilla, EDGE? Deshabilita la opción "Abrir vinculos en una pestaña nueva" tal como lo muestra ésta imagen.

Detective Knight: Sin Piedad (2022) PLACEBO Full HD 1080p Latino

302 vistas

Información de Detective Knight: Sin Piedad (2022) PLACEBO Full HD 1080p Latino

Datos de la película

  • Calidad: Full 1080p
  • Audio: Español Latino AC3 5.1 WEB-DL - Ingles DTS 5.1 BLURAY
  • Subtitulos: Español Latino PGS - Ingles PGS
  • Resolución: 1920x1080p
  • Formato: MKV
  • Codec: H.264
  • Encoder: Melkor
  • Mediainfo: Clic para Mostrar Datos Ver
  • Detective Knight. Sin Piedad (2022) PLACEBO 1080p Latino.mkv Format                      : Matroska Format version              : Version 4 File size                   : 9.19 GiB Duration                    : 1 h 45 min Overall bit rate            : 12.5 Mb/s Movie name                  : Detective Knight Rogue (2022) CinemaniaHDD.Net Encoded date                : UTC 2023-02-06 21:05:18 Writing application         : mkvmerge v56.1.0 ('My Friend') 64-bit Writing library             : libebml v1.4.2 + libmatroska v1.6.4 Attachments                 : CINEMANIAHD.png Video ID                          : 1 Format                      : AVC Format/Info                 : Advanced Video Codec Format profile              : High@L4.1 Format settings             : CABAC / 4 Ref Frames Format settings, CABAC      : Yes Format settings, Reference  : 4 frames Codec ID                    : V_MPEG4/ISO/AVC Duration                    : 1 h 45 min Bit rate                    : 10.3 Mb/s Width                       : 1 920 pixels Height                      : 1 080 pixels Display aspect ratio        : 16:9 Frame rate mode             : Constant Frame rate                  : 23.976 (24000/1001) FPS Color space                 : YUV Chroma subsampling          : 4:2:0 Bit depth                   : 8 bits Scan type                   : Progressive Bits/(Pixel*Frame)          : 0.208 Stream size                 : 7.59 GiB (83%) Title                       : Full HD1080p [CinemaniaHDD] Writing library             : x264 core 163 r3059 b684ebe0 Encoding settings           : cabac=1 / ref=4 / deblock=1:0:0 / analyse=0x3:0x133 / me=tesa / subme=11 / psy=1 / psy_rd=1.00:0.00 / mixed_ref=1 / me_range=24 / chroma_me=1 / trellis=2 / 8x8dct=1 / cqm=0 / deadzone=21,11 / fast_pskip=0 / chroma_qp_offset=-2 / threads=24 / lookahead_threads=6 / sliced_threads=0 / nr=0 / decimate=1 / interlaced=0 / bluray_compat=0 / constrained_intra=0 / bframes=16 / b_pyramid=2 / b_adapt=2 / b_bias=0 / direct=3 / weightb=1 / open_gop=0 / weightp=2 / keyint=240 / keyint_min=24 / scenecut=40 / intra_refresh=0 / rc_lookahead=60 / rc=crf / mbtree=1 / crf=19.0 / qcomp=0.60 / qpmin=0 / qpmax=69 / qpstep=4 / vbv_maxrate=62500 / vbv_bufsize=78125 / crf_max=0.0 / nal_hrd=none / filler=0 / ip_ratio=1.40 / aq=1:1.00 Default                     : Yes Forced                      : Yes Color range                 : Limited Color primaries             : BT.709 Transfer characteristics    : BT.709 Matrix coefficients         : BT.709 Audio #1 ID                          : 2 Format                      : AC-3 Format/Info                 : Audio Coding 3 Commercial name             : Dolby Digital Codec ID                    : A_AC3 Duration                    : 1 h 45 min Bit rate mode               : Constant Bit rate                    : 640 kb/s Channel(s)                  : 6 channels Channel layout              : L R C LFE Ls Rs Sampling rate               : 48.0 kHz Frame rate                  : 31.250 FPS (1536 SPF) Compression mode            : Lossy Stream size                 : 481 MiB (5%) Title                       : Español Latino [CinemaniaHDD] Language                    : Spanish Service kind                : Complete Main Default                     : Yes Forced                      : Yes Audio #2 ID                          : 3 Format                      : DTS Format/Info                 : Digital Theater Systems Codec ID                    : A_DTS Duration                    : 1 h 45 min Bit rate mode               : Constant Bit rate                    : 1 509 kb/s Channel(s)                  : 6 channels Channel layout              : C L R Ls Rs LFE Sampling rate               : 48.0 kHz Frame rate                  : 93.750 FPS (512 SPF) Bit depth                   : 24 bits Compression mode            : Lossy Stream size                 : 1.11 GiB (12%) Title                       : Ingles [CinemaniaHDD] Language                    : English Default                     : No Forced                      : No Text #1 ID                          : 4 ID in the original source m : 4609 (0x1201) Format                      : PGS Muxing mode                 : zlib Codec ID                    : S_HDMV/PGS Codec ID/Info               : Picture based subtitle format used on BDs/HD-DVDs Duration                    : 1 h 41 min Bit rate                    : 31.4 kb/s Count of elements           : 2654 Stream size                 : 22.8 MiB (0%) Title                       : Español-PGS [CinemaniaHDD] Language                    : Spanish Default                     : No Forced                      : No Original source medium      : Blu-ray Text #2 ID                          : 5 ID in the original source m : 4608 (0x1200) Format                      : PGS Muxing mode                 : zlib Codec ID                    : S_HDMV/PGS Codec ID/Info               : Picture based subtitle format used on BDs/HD-DVDs Duration                    : 1 h 39 min Bit rate                    : 41.4 kb/s Count of elements           : 3298 Stream size                 : 29.3 MiB (0%) Title                       : Ingles-PGS [CinemaniaHDD] Language                    : English Default                     : No Forced                      : No Original source medium      : Blu-ray Text #3 ID                          : 6 Format                      : UTF-8 Codec ID                    : S_TEXT/UTF8 Codec ID/Info               : UTF-8 Plain Text Duration                    : 1 h 20 min Bit rate                    : 0 b/s Count of elements           : 11 Stream size                 : 227 Bytes (0%) Title                       : Forzados-SRT [CinemaniaHDD] Language                    : Spanish Default                     : Yes Forced                      : Yes Text #4 ID                          : 7 Format                      : UTF-8 Codec ID                    : S_TEXT/UTF8 Codec ID/Info               : UTF-8 Plain Text Duration                    : 1 h 38 min Bit rate                    : 49 b/s Count of elements           : 1295 Stream size                 : 35.9 KiB (0%) Title                       : Español-SRT [CinemaniaHDD] Language                    : Spanish Default                     : No Forced                      : No Menu 00:00:00.000                : Chapter 01 00:06:48.950                : Chapter 02 00:13:24.428                : Chapter 03 00:19:56.987                : Chapter 04 00:23:49.553                : Chapter 05 00:32:33.701                : Chapter 06 00:36:53.169                : Chapter 07 00:44:38.676                : Chapter 08 00:50:17.180                : Chapter 09 00:54:20.257                : Chapter 10 00:58:36.638                : Chapter 11 01:05:37.975                : Chapter 12 01:15:38.033                : Chapter 13 01:20:26.071                : Chapter 14 01:30:11.697                : Chapter 15 01:38:01.125                : Chapter 16
  • Peso: 9.19 GiB

Sinopsis

Descargar Detective Knight: Sin Piedad (2022) PLACEBO Full HD 1080p Latino. James Knight es un veterano detective dedicado a navegar por las exigentes calles de Los Ángeles. Mientras la ciudad se prepara para Halloween, ladrones armados con máscaras hieren gravemente al compañero de Knight en un tiroteo después de un atraco. Con Knight persiguiéndolos, los bandidos huyen de Los Ángeles hacia Nueva York, donde el oscuro pasado del detective choca con su caso actual y amenaza con destrozar su mundo… a menos que la redención pueda reclamar primero a Knight.

Ficha técnica

Video trailer de la película

Enlaces de descarga

Rip de Bluray

Descargar Detective Knight: Sin Piedad (2022) PLACEBO Full HD 1080p Latino




Aportes de DPeliculasHDmega la pass es:dpeliculashdmega.org Aportes de CinemaniaHD la pass es:cinemaniahdd.com Aportes recientes:cinemaniahdd.net

Películas relacionadas

descargar Detective Knight: Sin Piedad (2022) PLACEBO Full HD 1080p Latino Full 1080p 1080p gratis, Detective Knight: Sin Piedad (2022) PLACEBO Full HD 1080p Latino Full 1080p mega 1 link, Detective Knight: Sin Piedad (2022) PLACEBO Full HD 1080p Latino Full 1080p pelicula completa, descargar Detective Knight: Sin Piedad (2022) PLACEBO Full HD 1080p Latino Full 1080p gratis en mega.

Detective Knight: Sin Piedad (2022) PLACEBO Full HD 1080p Latino pelicula full hd, Detective Knight: Sin Piedad (2022) PLACEBO Full HD 1080p Latino mega latino, Detective Knight: Sin Piedad (2022) PLACEBO Full HD 1080p Latino 4k latino, Detective Knight: Sin Piedad (2022) PLACEBO Full HD 1080p Latino pelicula completa, Detective Knight: Sin Piedad (2022) PLACEBO Full HD 1080p Latino descargar gratis, descargar Detective Knight: Sin Piedad (2022) PLACEBO Full HD 1080p Latino pelicula latino, Detective Knight: Sin Piedad (2022) PLACEBO Full HD 1080p Latino 1 link mega, Detective Knight: Sin Piedad (2022) PLACEBO Full HD 1080p Latino 1 link google drive, Detective Knight: Sin Piedad (2022) PLACEBO Full HD 1080p Latino hd 1080p latino.
Comentarios 0