×

¿Problemas para descargar con Mozilla, EDGE? Deshabilita la opción "Abrir vinculos en una pestaña nueva" tal como lo muestra ésta imagen.

Detective Knight: Redencion (2022) REMUX 1080p Latino

205 vistas

Información de Detective Knight: Redencion (2022) REMUX 1080p Latino

Datos de la película

  • Calidad: Full 1080p
  • Audio: Español Latino AC3 5.1 WEB-DL - Ingles DTS 5.1 BLURAY
  • Subtitulos: Español Latino PGS - Ingles PGS
  • Resolución: 1920x1080p
  • Formato: MKV
  • Codec: H.264
  • Encoder: Melkor
  • Mediainfo: Clic para Mostrar Datos Ver
  • Detective Knight. Redencion (2022) REMUX 1080p Latino.mkv Format                      : Matroska Format version              : Version 4 File size                   : 19.0 GiB Duration                    : 1 h 37 min Overall bit rate mode       : Variable Overall bit rate            : 28.0 Mb/s Movie name                  : Detective Knight Redemption (2022) CinemaniaHDD.Net Encoded date                : UTC 2023-02-05 22:21:41 Writing application         : mkvmerge v56.1.0 ('My Friend') 64-bit Writing library             : libebml v1.4.2 + libmatroska v1.6.4 Attachments                 : CINEMANIAHD.png Video ID                          : 1 ID in the original source m : 4113 (0x1011) Format                      : AVC Format/Info                 : Advanced Video Codec Format profile              : High@L4.1 Format settings             : CABAC / 4 Ref Frames Format settings, CABAC      : Yes Format settings, Reference  : 4 frames Codec ID                    : V_MPEG4/ISO/AVC Duration                    : 1 h 37 min Bit rate mode               : Variable Bit rate                    : 24.0 Mb/s Maximum bit rate            : 37.0 Mb/s Width                       : 1 920 pixels Height                      : 1 080 pixels Display aspect ratio        : 16:9 Frame rate mode             : Constant Frame rate                  : 23.976 (24000/1001) FPS Color space                 : YUV Chroma subsampling          : 4:2:0 Bit depth                   : 8 bits Scan type                   : Progressive Bits/(Pixel*Frame)          : 0.482 Stream size                 : 16.3 GiB (86%) Title                       : REMUX HD1080p [CinemaniaHDD] Language                    : English Default                     : Yes Forced                      : Yes Original source medium      : Blu-ray Audio #1 ID                          : 2 Format                      : AC-3 Format/Info                 : Audio Coding 3 Commercial name             : Dolby Digital Codec ID                    : A_AC3 Duration                    : 1 h 37 min Bit rate mode               : Constant Bit rate                    : 384 kb/s Channel(s)                  : 6 channels Channel layout              : L R C LFE Ls Rs Sampling rate               : 48.0 kHz Frame rate                  : 31.250 FPS (1536 SPF) Compression mode            : Lossy Stream size                 : 267 MiB (1%) Title                       : Español Latino [CinemaniaHDD] Language                    : Spanish Service kind                : Complete Main Default                     : Yes Forced                      : Yes Audio #2 ID                          : 3 ID in the original source m : 4352 (0x1100) Format                      : DTS XLL Format/Info                 : Digital Theater Systems Commercial name             : DTS-HD Master Audio Codec ID                    : A_DTS Duration                    : 1 h 37 min Bit rate mode               : Variable Bit rate                    : 3 581 kb/s Channel(s)                  : 6 channels Channel layout              : C L R Ls Rs LFE Sampling rate               : 48.0 kHz Frame rate                  : 93.750 FPS (512 SPF) Bit depth                   : 24 bits Compression mode            : Lossless Stream size                 : 2.43 GiB (13%) Title                       : Ingles [CinemaniaHDD] Language                    : English Default                     : No Forced                      : No Original source medium      : Blu-ray Text #1 ID                          : 4 ID in the original source m : 4609 (0x1201) Format                      : PGS Muxing mode                 : zlib Codec ID                    : S_HDMV/PGS Codec ID/Info               : Picture based subtitle format used on BDs/HD-DVDs Duration                    : 1 h 33 min Bit rate                    : 34.6 kb/s Count of elements           : 2294 Stream size                 : 23.0 MiB (0%) Title                       : Español-PGS [CinemaniaHDD] Language                    : Spanish Default                     : No Forced                      : No Original source medium      : Blu-ray Text #2 ID                          : 5 ID in the original source m : 4608 (0x1200) Format                      : PGS Muxing mode                 : zlib Codec ID                    : S_HDMV/PGS Codec ID/Info               : Picture based subtitle format used on BDs/HD-DVDs Duration                    : 1 h 32 min Bit rate                    : 39.8 kb/s Count of elements           : 2624 Stream size                 : 26.4 MiB (0%) Title                       : Ingles [CinemaniaHDD] Language                    : English Default                     : No Forced                      : No Original source medium      : Blu-ray Text #3 ID                          : 6 Format                      : UTF-8 Codec ID                    : S_TEXT/UTF8 Codec ID/Info               : UTF-8 Plain Text Duration                    : 1 h 27 min Bit rate                    : 1 b/s Count of elements           : 21 Stream size                 : 699 Bytes (0%) Title                       : Forzados-SRT [CinemaniaHDD] Language                    : Spanish Default                     : Yes Forced                      : Yes Text #4 ID                          : 7 Format                      : UTF-8 Codec ID                    : S_TEXT/UTF8 Codec ID/Info               : UTF-8 Plain Text Duration                    : 1 h 30 min Bit rate                    : 55 b/s Count of elements           : 1184 Stream size                 : 36.4 KiB (0%) Title                       : Español-SRT [CinemaniaHDD] Language                    : Spanish Default                     : No Forced                      : No Menu 00:00:00.000                : Chapter 01 00:06:07.575                : Chapter 02 00:13:11.540                : Chapter 03 00:18:32.820                : Chapter 04 00:25:52.717                : Chapter 05 00:31:04.445                : Chapter 06 00:36:30.688                : Chapter 07 00:42:05.105                : Chapter 08 00:47:07.991                : Chapter 09 00:57:11.094                : Chapter 10 01:02:11.060                : Chapter 11 01:07:34.300                : Chapter 12 01:11:35.082                : Chapter 13 01:16:05.811                : Chapter 14 01:20:55.141                : Chapter 15 01:27:36.084                : Chapter 16
  • Peso: 19.0 GiB

Sinopsis

Descargar Detective Knight: Redencion (2022) REMUX 1080p Latino. El detective James Knight se encuentra en medio de una fuga dirigida por The Christmas Bomber, un fanático brutal cuyos discípulos de Santa Claus están aterrorizando a la ciudad. Con la prometida devolución de su placa a cambio de acabar con los terroristas, el Caballero de ojos de acero reparte misericordia por los justos… y justicia despiadada por todos los demás.

Ficha técnica

Video trailer de la película

Enlaces de descarga

Rip de Bluray

Descargar Detective Knight: Redencion (2022) REMUX 1080p Latino




Aportes de DPeliculasHDmega la pass es:dpeliculashdmega.org Aportes de CinemaniaHD la pass es:cinemaniahdd.com Aportes recientes:cinemaniahdd.net
Guardado en : Acción , Remux , Suspenso

Películas relacionadas

  • Naturaleza Humana (2022) REMUX 1080p Latino

    Naturaleza Humana (2022) REMUX 1080p Latino

    2022
    Naturaleza Humana (2022) REMUX 1080p Latino

    1h 31m 2022

    Descargar Naturaleza Humana (2022) REMUX 1080p Latino. Una historia sobre la mayoría de edad contada...

    Director: Louie Gibson

    Género: Drama

    Actores: Tim Heidecker

  • Next Goal Wins (2023) REMUX 1080p Latino-CMHDD

    Next Goal Wins (2023) REMUX 1080p Latino-CMHDD

    2023
    Next Goal Wins (2023) REMUX 1080p Latino-CMHDD

    1h 44m 2023

    Descargar Next Goal Wins (2023) REMUX 1080p Latino-CMHDD. Drama deportivo que cuenta la historia del...

    Director: Zack Earl Edwards

    Género: Comedia

    Actores: William Chun

  • One Day (2011) REMUX 1080p Latino-CMHDD

    One Day (2011) REMUX 1080p Latino-CMHDD

    2011
    One Day (2011) REMUX 1080p Latino-CMHDD

    1h 43m 2011

    Descargar One Day (2011) REMUX 1080p Latino-CMHDD. Emma y Dexter se conocen el día de su graduación...

    Director: Maj-Britt La Cour

    Género: Drama

    Actores: Ukweli Roach

  • Wonka (2023) REMUX 1080p Latino-CMHDD

    Wonka (2023) REMUX 1080p Latino-CMHDD

    2023
    Wonka (2023) REMUX 1080p Latino-CMHDD

    1h 57m 2023

    Descargar Wonka (2023) REMUX 1080p Latino-CMHDD. Basada en el personaje que protagoniza "Charlie y la...

    Director: Zoe Morgan

    Género: Comedia

    Actores: Tracy Ifeachor

descargar Detective Knight: Redencion (2022) REMUX 1080p Latino Full 1080p 1080p gratis, Detective Knight: Redencion (2022) REMUX 1080p Latino Full 1080p mega 1 link, Detective Knight: Redencion (2022) REMUX 1080p Latino Full 1080p pelicula completa, descargar Detective Knight: Redencion (2022) REMUX 1080p Latino Full 1080p gratis en mega.

Detective Knight: Redencion (2022) REMUX 1080p Latino pelicula full hd, Detective Knight: Redencion (2022) REMUX 1080p Latino mega latino, Detective Knight: Redencion (2022) REMUX 1080p Latino 4k latino, Detective Knight: Redencion (2022) REMUX 1080p Latino pelicula completa, Detective Knight: Redencion (2022) REMUX 1080p Latino descargar gratis, descargar Detective Knight: Redencion (2022) REMUX 1080p Latino pelicula latino, Detective Knight: Redencion (2022) REMUX 1080p Latino 1 link mega, Detective Knight: Redencion (2022) REMUX 1080p Latino 1 link google drive, Detective Knight: Redencion (2022) REMUX 1080p Latino hd 1080p latino.
Comentarios 0