×

¿Problemas para descargar con Mozilla, EDGE? Deshabilita la opción "Abrir vinculos en una pestaña nueva" tal como lo muestra ésta imagen.

Detective Knight: Independencia (2023) HD 1080p Latino

246 vistas

Información de Detective Knight: Independencia (2023) HD 1080p Latino

Datos de la película

  • Calidad: 1080p
  • Audio: Español Latino AC3 5.1 WEB-DL - Ingles AC3 5.1 BLURAY
  • Subtitulos: Español Latino SRT- FORZADOS SRT
  • Resolución: 1920x804p
  • Formato: MKV
  • Codec: H.264
  • Encoder: Melkor
  • Mediainfo: Clic para Mostrar Datos Ver
  • Detective Knight. Independencia (2023) HD 1080p Latino.mkv
    Format                      : Matroska
    Format version              : Version 4
    File size                   : 2.93 GiB
    Duration                    : 1 h 31 min
    Overall bit rate            : 4 582 kb/s
    Movie name                  : Detective Knight. Independence (2023) CinemaniaHDD.Net
    Encoded date                : UTC 2023-02-26 23:32:42
    Writing application         : mkvmerge v56.1.0 ('My Friend') 64-bit
    Writing library             : libebml v1.4.2 + libmatroska v1.6.4
    Attachments                 : CINEMANIAHD.png
    Site                        : CinemaniaHDD.Net
    Uploader                    : Melkor

    Video
    ID                          : 1
    Format                      : AVC
    Format/Info                 : Advanced Video Codec
    Format profile              : High@L4.1
    Format settings             : CABAC / 5 Ref Frames
    Format settings, CABAC      : Yes
    Format settings, Reference  : 5 frames
    Codec ID                    : V_MPEG4/ISO/AVC
    Duration                    : 1 h 31 min
    Bit rate                    : 3 500 kb/s
    Width                       : 1 920 pixels
    Height                      : 804 pixels
    Display aspect ratio        : 2.40:1
    Frame rate mode             : Constant
    Frame rate                  : 23.976 (24000/1001) FPS
    Color space                 : YUV
    Chroma subsampling          : 4:2:0
    Bit depth                   : 8 bits
    Scan type                   : Progressive
    Bits/(Pixel*Frame)          : 0.095
    Stream size                 : 2.23 GiB (76%)
    Title                       : HD1080p [CinemaniaHDD]
    Writing library             : x264 core 163 r3059 b684ebe0
    Encoding settings           : cabac=1 / ref=5 / deblock=1:-1:-1 / analyse=0x3:0x133 / me=umh / subme=9 / psy=1 / psy_rd=1.00:0.15 / mixed_ref=1 / me_range=16 / chroma_me=1 / trellis=2 / 8x8dct=1 / cqm=0 / deadzone=21,11 / fast_pskip=1 / chroma_qp_offset=-3 / threads=24 / lookahead_threads=2 / sliced_threads=0 / nr=0 / decimate=1 / interlaced=0 / bluray_compat=0 / constrained_intra=0 / bframes=3 / b_pyramid=2 / b_adapt=2 / b_bias=0 / direct=3 / weightb=1 / open_gop=0 / weightp=2 / keyint=240 / keyint_min=24 / scenecut=40 / intra_refresh=0 / rc_lookahead=60 / rc=abr / mbtree=1 / bitrate=3500 / ratetol=1.0 / qcomp=0.60 / qpmin=0 / qpmax=69 / qpstep=4 / vbv_maxrate=62500 / vbv_bufsize=78125 / nal_hrd=none / filler=0 / ip_ratio=1.40 / aq=1:1.00
    Default                     : Yes
    Forced                      : Yes
    Color range                 : Limited
    Color primaries             : BT.709
    Transfer characteristics    : BT.709
    Matrix coefficients         : BT.709

    Audio #1
    ID                          : 2
    Format                      : AC-3
    Format/Info                 : Audio Coding 3
    Commercial name             : Dolby Digital
    Codec ID                    : A_AC3
    Duration                    : 1 h 31 min
    Bit rate mode               : Constant
    Bit rate                    : 640 kb/s
    Channel(s)                  : 6 channels
    Channel layout              : L R C LFE Ls Rs
    Sampling rate               : 48.0 kHz
    Frame rate                  : 31.250 FPS (1536 SPF)
    Compression mode            : Lossy
    Delay relative to video     : 9 ms
    Stream size                 : 419 MiB (14%)
    Title                       : Español Latino [CinemaniaHDD]
    Language                    : Spanish
    Service kind                : Complete Main
    Default                     : Yes
    Forced                      : Yes

    Audio #2
    ID                          : 3
    Format                      : AC-3
    Format/Info                 : Audio Coding 3
    Commercial name             : Dolby Digital
    Codec ID                    : A_AC3
    Duration                    : 1 h 31 min
    Bit rate mode               : Constant
    Bit rate                    : 448 kb/s
    Channel(s)                  : 6 channels
    Channel layout              : L R C LFE Ls Rs
    Sampling rate               : 48.0 kHz
    Frame rate                  : 31.250 FPS (1536 SPF)
    Compression mode            : Lossy
    Delay relative to video     : -5 ms
    Stream size                 : 293 MiB (10%)
    Title                       : Ingles [CinemaniaHDD]
    Language                    : English
    Service kind                : Complete Main
    Default                     : No
    Forced                      : No

    Text #1
    ID                          : 4
    Format                      : UTF-8
    Codec ID                    : S_TEXT/UTF8
    Codec ID/Info               : UTF-8 Plain Text
    Duration                    : 1 h 13 min
    Bit rate                    : 0 b/s
    Count of elements           : 16
    Stream size                 : 373 Bytes (0%)
    Title                       : Forzados-SRT [CinemaniaHDD]
    Language                    : Spanish
    Default                     : Yes
    Forced                      : Yes

    Text #2
    ID                          : 5
    Format                      : UTF-8
    Codec ID                    : S_TEXT/UTF8
    Codec ID/Info               : UTF-8 Plain Text
    Duration                    : 1 h 27 min
    Bit rate                    : 42 b/s
    Count of elements           : 1007
    Stream size                 : 27.0 KiB (0%)
    Title                       : Español-SRT [CinemaniaHDD]
    Language                    : Spanish
    Default                     : No
    Forced                      : No

    Menu
    00:00:00.000                : Chapter 01
    00:06:09.035                : Chapter 02
    00:11:41.367                : Chapter 03
    00:19:07.855                : Chapter 04
    00:26:22.205                : Chapter 05
    00:30:13.812                : Chapter 06
    00:36:36.861                : Chapter 07
    00:41:32.198                : Chapter 08
    00:44:44.223                : Chapter 09
    00:50:10.799                : Chapter 10
    00:53:57.567                : Chapter 11
    01:00:04.100                : Chapter 12
    01:06:04.210                : Chapter 13
    01:10:52.831                : Chapter 14
    01:16:25.581                : Chapter 15
    01:24:24.768                : Chapter 16

  • Peso: 2.93 GiB

Sinopsis

Descargar Detective Knight: Independencia (2023) HD 1080p Latino. La asignación de última hora del detective James Knight al turno del Día de la Independencia se convierte en una carrera para evitar que una ambulancia EMT desequilibrada ponga en peligro las festividades de la ciudad. El justiciero equivocado, que juega a ser policía con un arma y un uniforme robados, tiene la bóveda de un banco llena de razones para montar su propio espectáculo de fuegos artificiales… uno que golpeará peligrosamente cerca de la casa de Knight.

Ficha técnica

Video trailer de la película

Enlaces de descarga

Rip de Bluray

Descargar Detective Knight: Independencia (2023) HD 1080p Latino




Aportes de DPeliculasHDmega la pass es:dpeliculashdmega.org Aportes de CinemaniaHD la pass es:cinemaniahdd.com Aportes recientes:cinemaniahdd.net
Guardado en : Acción , Crimen , HD 1080p , Suspenso

Películas relacionadas

  • Squealer (2023) PCOK WEB-DL 1080p Latino

    Squealer (2023) PCOK WEB-DL 1080p Latino

    2023
    Squealer (2023) PCOK WEB-DL 1080p Latino

    1h 39m 2023

    Un policía local y una trabajadora social, siguen las pistas sobre los casos de personas desaparecidas...

    Director: Andy Armstrong

    Género: Suspenso

    Actores: Wes Chatham

  • Hightown (2024) Temporada 3 AMZN WEB-DL 1080p Latino

    Hightown (2024) Temporada 3 AMZN WEB-DL 1080p Latino

    2020
    Hightown (2024) Temporada 3 AMZN WEB-DL 1080p Latino

    0h 55m 2020

    En la tercera temporada de Hightown, Jackie Quinones debe confiar en sus lealtades y creencias para elegir...

    Director: Rebecca Perry Cutter

    Género: Crimen

    Actores: Riley Voelkel

  • Combate clandestino (2024) AMZN WEB-DL 1080p Latino

    Combate clandestino (2024) AMZN WEB-DL 1080p Latino

    2024
    Combate clandestino (2024) AMZN WEB-DL 1080p Latino

    1h 30m 2024

    Descargar Combate clandestino (2024) AMZN WEB-DL 1080p Latino. Un ex soldado a la deriva se convierte...

    Director: Christian Sesma

    Género: Acción

    Actores: Tyler Wombles

  • ¡Patos! (2023) HD 1080p Latino

    ¡Patos! (2023) HD 1080p Latino

    2023
    ¡Patos! (2023) HD 1080p Latino

    1h 23m 2023

    Descargar ¡Patos! (2023) HD 1080p Latino. Después de que una familia de patos migratorios aterriza...

    Director: Guy-Laurent Homsy

    Género: Acción

    Actores: Zeno Robinson

descargar Detective Knight: Independencia (2023) HD 1080p Latino 1080p 1080p gratis, Detective Knight: Independencia (2023) HD 1080p Latino 1080p mega 1 link, Detective Knight: Independencia (2023) HD 1080p Latino 1080p pelicula completa, descargar Detective Knight: Independencia (2023) HD 1080p Latino 1080p gratis en mega.

Detective Knight: Independencia (2023) HD 1080p Latino pelicula full hd, Detective Knight: Independencia (2023) HD 1080p Latino mega latino, Detective Knight: Independencia (2023) HD 1080p Latino 4k latino, Detective Knight: Independencia (2023) HD 1080p Latino pelicula completa, Detective Knight: Independencia (2023) HD 1080p Latino descargar gratis, descargar Detective Knight: Independencia (2023) HD 1080p Latino pelicula latino, Detective Knight: Independencia (2023) HD 1080p Latino 1 link mega, Detective Knight: Independencia (2023) HD 1080p Latino 1 link google drive, Detective Knight: Independencia (2023) HD 1080p Latino hd 1080p latino.
Comentarios 0