×

¿Problemas para descargar con Mozilla, EDGE? Deshabilita la opción "Abrir vinculos en una pestaña nueva" tal como lo muestra ésta imagen.

Detective Knight: Independence (2023) AMZN WEB-DL 1080p Latino

262 vistas

Información de Detective Knight: Independence (2023) AMZN WEB-DL 1080p Latino

Datos de la película

  • Calidad: WEBDL
  • Audio: Español Latino AC3 5.1 WEB-DL - Ingles AC3 5.1 WEB-DL
  • Subtitulos: Español Latino SRT- FORZADOS SRT
  • Resolución: 1920x800p
  • Formato: MKV
  • Codec: H.264
  • Encoder: Melkor
  • Mediainfo: Clic para Mostrar Datos Ver
  • Detective Knight. Independence (2023) AMZN WebDL 1080p Latino.mkv Format                      : Matroska Format version              : Version 4 File size                   : 7.58 GiB Duration                    : 1 h 31 min Overall bit rate            : 11.9 Mb/s Movie name                  : Detective Knight. Independence (2023) CinemaniaHDD.Net Encoded date                : UTC 2023-01-27 03:45:04 Writing application         : mkvmerge v56.1.0 ('My Friend') 64-bit Writing library             : libebml v1.4.2 + libmatroska v1.6.4 Attachments                 : CINEMANIAHD.png Video ID                          : 1 Format                      : AVC Format/Info                 : Advanced Video Codec Format profile              : High@L4 Format settings             : CABAC / 4 Ref Frames Format settings, CABAC      : Yes Format settings, Reference  : 4 frames Codec ID                    : V_MPEG4/ISO/AVC Duration                    : 1 h 31 min Bit rate mode               : Constant Bit rate                    : 10 000 kb/s Width                       : 1 920 pixels Height                      : 800 pixels Display aspect ratio        : 2.40:1 Frame rate mode             : Constant Frame rate                  : 23.976 (24000/1001) FPS Color space                 : YUV Chroma subsampling          : 4:2:0 Bit depth                   : 8 bits Scan type                   : Progressive Bits/(Pixel*Frame)          : 0.272 Stream size                 : 6.35 GiB (84%) Title                       : Web HD1080p [CinemaniaHDD] Language                    : English Default                     : Yes Forced                      : Yes Color range                 : Limited Color primaries             : BT.709 Transfer characteristics    : BT.709 Matrix coefficients         : BT.709 Audio #1 ID                          : 2 Format                      : AC-3 Format/Info                 : Audio Coding 3 Commercial name             : Dolby Digital Codec ID                    : A_AC3 Duration                    : 1 h 31 min Bit rate mode               : Constant Bit rate                    : 640 kb/s Channel(s)                  : 6 channels Channel layout              : L R C LFE Ls Rs Sampling rate               : 48.0 kHz Frame rate                  : 31.250 FPS (1536 SPF) Compression mode            : Lossy Stream size                 : 419 MiB (5%) Title                       : Español Latino AC3 [CinemaniaHDD] Language                    : Spanish Service kind                : Complete Main Default                     : Yes Forced                      : Yes Audio #2 ID                          : 3 Format                      : E-AC-3 Format/Info                 : Enhanced AC-3 Commercial name             : Dolby Digital Plus Codec ID                    : A_EAC3 Duration                    : 1 h 31 min Bit rate mode               : Constant Bit rate                    : 640 kb/s Channel(s)                  : 6 channels Channel layout              : L R C LFE Ls Rs Sampling rate               : 48.0 kHz Frame rate                  : 31.250 FPS (1536 SPF) Compression mode            : Lossy Stream size                 : 419 MiB (5%) Title                       : Español Latino EAC3 [CinemaniaHDD] Language                    : Spanish Service kind                : Complete Main Default                     : No Forced                      : No Audio #3 ID                          : 4 Format                      : E-AC-3 Format/Info                 : Enhanced AC-3 Commercial name             : Dolby Digital Plus Codec ID                    : A_EAC3 Duration                    : 1 h 31 min Bit rate mode               : Constant Bit rate                    : 640 kb/s Channel(s)                  : 6 channels Channel layout              : L R C LFE Ls Rs Sampling rate               : 48.0 kHz Frame rate                  : 31.250 FPS (1536 SPF) Compression mode            : Lossy Stream size                 : 419 MiB (5%) Title                       : Ingles [CinemaniaHDD] Language                    : English Service kind                : Complete Main Default                     : No Forced                      : No Text #1 ID                          : 5 Format                      : UTF-8 Codec ID                    : S_TEXT/UTF8 Codec ID/Info               : UTF-8 Plain Text Duration                    : 1 h 13 min Bit rate                    : 0 b/s Count of elements           : 16 Stream size                 : 373 Bytes (0%) Title                       : Forzados-SRT [CinemaniaHDD] Language                    : Spanish Default                     : Yes Forced                      : Yes Text #2 ID                          : 6 Format                      : UTF-8 Codec ID                    : S_TEXT/UTF8 Codec ID/Info               : UTF-8 Plain Text Duration                    : 1 h 27 min Bit rate                    : 42 b/s Count of elements           : 1007 Stream size                 : 27.0 KiB (0%) Title                       : Español-SRT [CinemaniaHDD] Language                    : Spanish Default                     : No Forced                      : No Text #3 ID                          : 7 Format                      : UTF-8 Codec ID                    : S_TEXT/UTF8 Codec ID/Info               : UTF-8 Plain Text Duration                    : 1 h 27 min Bit rate                    : 45 b/s Count of elements           : 1000 Stream size                 : 29.3 KiB (0%) Title                       : Ingles-SRT [CinemaniaHDD] Language                    : English Default                     : No Forced                      : No
  • Peso: 7.58 GiB

Sinopsis

Descargar Detective Knight: Independence (2023) AMZN WEB-DL 1080p Latino. La asignación de última hora del detective James Knight al turno del Día de la Independencia se convierte en una carrera para evitar que una ambulancia EMT desequilibrada ponga en peligro las festividades de la ciudad. El justiciero equivocado, que juega a ser policía con un arma y un uniforme robados, tiene la bóveda de un banco llena de razones para montar su propio espectáculo de fuegos artificiales… uno que golpeará peligrosamente cerca de la casa de Knight.

Ficha técnica

  • Titulo original: Detective Knight: Independence
  • Fecha de lanzamiento: 20-01-2023 (Canada, United States of America)
  • Director: Edward Drake
  • Género: Acción, Crimen, Suspenso

Video trailer de la película

Enlaces de descarga

Rip de Bluray

Descargar Detective Knight: Independence (2023) AMZN WEB-DL 1080p Latino




Aportes de DPeliculasHDmega la pass es:dpeliculashdmega.org Aportes de CinemaniaHD la pass es:cinemaniahdd.com Aportes recientes:cinemaniahdd.net
Guardado en : Acción , Crimen , Suspenso

Películas relacionadas

descargar Detective Knight: Independence (2023) AMZN WEB-DL 1080p Latino WEBDL 1080p gratis, Detective Knight: Independence (2023) AMZN WEB-DL 1080p Latino WEBDL mega 1 link, Detective Knight: Independence (2023) AMZN WEB-DL 1080p Latino WEBDL pelicula completa, descargar Detective Knight: Independence (2023) AMZN WEB-DL 1080p Latino WEBDL gratis en mega.

Detective Knight: Independence (2023) AMZN WEB-DL 1080p Latino pelicula full hd, Detective Knight: Independence (2023) AMZN WEB-DL 1080p Latino mega latino, Detective Knight: Independence (2023) AMZN WEB-DL 1080p Latino 4k latino, Detective Knight: Independence (2023) AMZN WEB-DL 1080p Latino pelicula completa, Detective Knight: Independence (2023) AMZN WEB-DL 1080p Latino descargar gratis, descargar Detective Knight: Independence (2023) AMZN WEB-DL 1080p Latino pelicula latino, Detective Knight: Independence (2023) AMZN WEB-DL 1080p Latino 1 link mega, Detective Knight: Independence (2023) AMZN WEB-DL 1080p Latino 1 link google drive, Detective Knight: Independence (2023) AMZN WEB-DL 1080p Latino hd 1080p latino.
Comentarios 0