×

¿Problemas para descargar con Mozilla, EDGE? Deshabilita la opción "Abrir vinculos en una pestaña nueva" tal como lo muestra ésta imagen.

Despicable Me 3 (2017) REMUX 4K HDR Latino – CMHDD

216 vistas

Información de Despicable Me 3 (2017) REMUX 4K HDR Latino – CMHDD

Datos de la película

  • Calidad: 4K HDR
  • Audio: Se especifica abajo de la Sinopsis
  • Subtitulos: Español Latino PGS
  • Resolución: 3840x2160p
  • Formato: MKV
  • Codec: H.264
  • Encoder: Dracarys
  • Mediainfo: Clic para Mostrar Datos Ver
  • Format                      : Matroska
    Format version              : Version 4
    File size                   : 42.9 GiB
    Duration                    : 1 h 29 min
    Overall bit rate mode       : Variable
    Overall bit rate            : 68.5 Mb/s
    Movie name                  : Despicable Me 3 (2017) REMUX 4K HDR Latino - CMHDD
    Encoded date                : UTC 2021-03-25 04:14:46
    Writing application         : mkvmerge v51.0.0 ('I Wish') 64-bit
    Writing library             : libebml v1.4.0 + libmatroska v1.6.2
    Cover                       : Yes
    Attachments                 : cover.jpg

    Video
    ID                          : 1
    ID in the original source m : 4113 (0x1011)
    Format                      : HEVC
    Format/Info                 : High Efficiency Video Coding
    Format profile              : Main 10@L5.1@High
    HDR format                  : SMPTE ST 2086, HDR10 compatible
    Codec ID                    : V_MPEGH/ISO/HEVC
    Duration                    : 1 h 29 min
    Bit rate                    : 60.9 Mb/s
    Width                       : 3 840 pixels
    Height                      : 2 160 pixels
    Display aspect ratio        : 16:9
    Frame rate mode             : Constant
    Frame rate                  : 23.976 (24000/1001) FPS
    Color space                 : YUV
    Chroma subsampling          : 4:2:0 (Type 2)
    Bit depth                   : 10 bits
    Bits/(Pixel*Frame)          : 0.306
    Stream size                 : 38.1 GiB (89%)
    Default                     : Yes
    Forced                      : No
    Color range                 : Limited
    Color primaries             : BT.2020
    Transfer characteristics    : PQ
    Matrix coefficients         : BT.2020 non-constant
    Mastering display color pri : Display P3
    Mastering display luminance : min: 0.0050 cd/m2, max: 1000 cd/m2
    Maximum Content Light Level : 1000 cd/m2
    Maximum Frame-Average Light : 701 cd/m2
    Original source medium      : Blu-ray

    Audio #1
    ID                          : 2
    Format                      : DTS XBR
    Format/Info                 : Digital Theater Systems
    Commercial name             : DTS-HD High Resolution Audio
    Codec ID                    : A_DTS
    Duration                    : 1 h 29 min
    Bit rate mode               : Constant
    Bit rate                    : 2 046 kb/s
    Channel(s)                  : 8 channels
    Channel layout              : C L R LFE Lb Rb Lss Rss
    Sampling rate               : 48.0 kHz
    Frame rate                  : 93.750 FPS (512 SPF)
    Bit depth                   : 24 bits
    Compression mode            : Lossy
    Stream size                 : 1.28 GiB (3%)
    Language                    : Spanish
    Default                     : Yes
    Forced                      : No

    Audio #2
    ID                          : 3
    ID in the original source m : 4352 (0x1100)
    Format                      : DTS XLL X
    Format/Info                 : Digital Theater Systems
    Commercial name             : DTS-HD Master Audio
    Codec ID                    : A_DTS
    Duration                    : 1 h 29 min
    Bit rate mode               : Variable
    Bit rate                    : 5 524 kb/s
    Channel(s)                  : 8 channels
    Channel(s)_Original         : Object Based
    ChannelLayout_Original      : Object Based
    Sampling rate               : 48.0 kHz
    Frame rate                  : 93.750 FPS (512 SPF)
    Bit depth                   : 24 bits
    Stream size                 : 3.46 GiB (8%)
    Language                    : English
    Default                     : No
    Forced                      : No
    Original source medium      : Blu-ray

    Text #1
    ID                          : 4
    Format                      : PGS
    Muxing mode                 : zlib
    Codec ID                    : S_HDMV/PGS
    Codec ID/Info               : Picture based subtitle format used on BDs/HD-DVDs
    Duration                    : 1 h 28 min
    Bit rate                    : 28.3 kb/s
    Count of elements           : 2154
    Stream size                 : 17.9 MiB (0%)
    Language                    : Spanish
    Default                     : No
    Forced                      : No

    Text #2
    ID                          : 5
    Format                      : PGS
    Muxing mode                 : zlib
    Codec ID                    : S_HDMV/PGS
    Codec ID/Info               : Picture based subtitle format used on BDs/HD-DVDs
    Duration                    : 1 h 27 min
    Bit rate                    : 445 b/s
    Count of elements           : 36
    Stream size                 : 285 KiB (0%)
    Language                    : Spanish
    Default                     : Yes
    Forced                      : No

    Menu
    00:00:00.000                : en:Chapter 01
    00:03:06.102                : en:Chapter 02
    00:07:57.977                : en:Chapter 03
    00:11:12.838                : en:Chapter 04
    00:16:15.766                : en:Chapter 05
    00:20:07.497                : en:Chapter 06
    00:24:07.988                : en:Chapter 07
    00:28:57.068                : en:Chapter 08
    00:32:55.348                : en:Chapter 09
    00:39:01.839                : en:Chapter 10
    00:42:44.186                : en:Chapter 11
    00:46:47.179                : en:Chapter 12
    00:50:55.635                : en:Chapter 13
    00:56:12.077                : en:Chapter 14
    01:00:02.265                : en:Chapter 15
    01:05:41.228                : en:Chapter 16
    01:10:14.543                : en:Chapter 17
    01:14:33.760                : en:Chapter 18
    01:19:29.723                : en:Chapter 19
    01:21:56.995                : en:Chapter 20

  • Peso: 42.9 GiB

Sinopsis

A Gru lo han despedido. Se ha quedado sin trabajo porque ha dejado escapar al supervillano Balthazar Bratt, estrella infantil de los años 80 que con la llegada de la pubertad lo perdió todo y ha estado creando el caos en todo el planeta. Además, Gru va a conocer a su hermano gemelo Dru y tendrá que decidir si está listo para continuar la tradición familiar de dedicarse al crimen, y unirse a el para llevar a cabo un último golpe. Aunque ha dejado esa vida atrás… ¿volverá a convertirse Gru en un villano?

 

Latino: DTS-HD HR 7.1  –  Ingles: DTS-HD MA 7.1

Ficha técnica

Video trailer de la película

Enlaces de descarga

Rip de Bluray

Descargar Despicable Me 3 (2017) REMUX 4K HDR Latino – CMHDD


Aportes de DPeliculasHDmega la pass es:dpeliculashdmega.org Aportes de CinemaniaHD la pass es:cinemaniahdd.com
Guardado en : Acción , Animación , Aventura , Comedia , Familia

Películas relacionadas

  • Wire Room (2022) HD 1080p Latino

    Wire Room (2022) HD 1080p Latino

    2022
    Wire Room (2022) HD 1080p Latino

    1h 37m 2022

    Descargar Wire Room (2022) HD 1080p Latino. Mientras está de servicio en la sala de cables, un agente...

    Director: Matt Eskandari

    Género: Acción

    Actores: Texas Battle

  • Wire Room (2022) PLACEBO Full HD 1080p Latino

    Wire Room (2022) PLACEBO Full HD 1080p Latino

    2022
    Wire Room (2022) PLACEBO Full HD 1080p Latino

    1h 37m 2022

    Descargar Wire Room (2022) PLACEBO Full HD 1080p Latino. Mientras está de servicio en la sala de cables,...

    Director: Matt Eskandari

    Género: Acción

    Actores: Texas Battle

  • Wire Room (2022) REMUX 1080p Latino

    Wire Room (2022) REMUX 1080p Latino

    2022
    Wire Room (2022) REMUX 1080p Latino

    1h 37m 2022

    Descargar Wire Room (2022) REMUX 1080p Latino. Mientras está de servicio en la sala de cables, un agente...

    Director: Matt Eskandari

    Género: Acción

    Actores: Texas Battle

descargar Despicable Me 3 (2017) REMUX 4K HDR Latino – CMHDD 4K HDR 1080p gratis, Despicable Me 3 (2017) REMUX 4K HDR Latino – CMHDD 4K HDR mega 1 link, Despicable Me 3 (2017) REMUX 4K HDR Latino – CMHDD 4K HDR pelicula completa, descargar Despicable Me 3 (2017) REMUX 4K HDR Latino – CMHDD 4K HDR gratis en mega.

Despicable Me 3 (2017) REMUX 4K HDR Latino – CMHDD pelicula full hd, Despicable Me 3 (2017) REMUX 4K HDR Latino – CMHDD mega latino, Despicable Me 3 (2017) REMUX 4K HDR Latino – CMHDD 4k latino, Despicable Me 3 (2017) REMUX 4K HDR Latino – CMHDD pelicula completa, Despicable Me 3 (2017) REMUX 4K HDR Latino – CMHDD descargar gratis, descargar Despicable Me 3 (2017) REMUX 4K HDR Latino – CMHDD pelicula latino, Despicable Me 3 (2017) REMUX 4K HDR Latino – CMHDD 1 link mega, Despicable Me 3 (2017) REMUX 4K HDR Latino – CMHDD 1 link google drive, Despicable Me 3 (2017) REMUX 4K HDR Latino – CMHDD hd 1080p latino.
Comentarios 0