×

¿Problemas para descargar con Mozilla, EDGE? Deshabilita la opción "Abrir vinculos en una pestaña nueva" tal como lo muestra ésta imagen.

Despicable Me (2010) REMUX 4K HDR Latino – CMHDD

324 vistas

Información de Despicable Me (2010) REMUX 4K HDR Latino – CMHDD

Datos de la película

  • Calidad: 4K HDR
  • Audio: Español Latino DTS 5.1 BLURAY - Ingles DTS-HD Master 7.1 BLURAY
  • Subtitulos: Español Latino PGS
  • Resolución: 3840x2160p
  • Formato: MKV
  • Codec: H.264
  • Encoder: Dracarys
  • Mediainfo: Clic para Mostrar Datos Ver
  • Format                      : Matroska
    Format version              : Version 4
    File size                   : 25.0 GiB
    Duration                    : 1 h 34 min
    Overall bit rate mode       : Variable
    Overall bit rate            : 37.8 Mb/s
    Movie name                  : Despicable Me (2010) REMUX 4K HDR Latino - CMHDD
    Encoded date                : UTC 2021-03-25 03:20:27
    Writing application         : mkvmerge v51.0.0 ('I Wish') 64-bit
    Writing library             : libebml v1.4.0 + libmatroska v1.6.2
    Cover                       : Yes
    Attachments                 : cover.jpg

    Video
    ID                          : 1
    Format                      : HEVC
    Format/Info                 : High Efficiency Video Coding
    Format profile              : Main 10@L5.1@High
    HDR format                  : SMPTE ST 2086, HDR10 compatible
    Codec ID                    : V_MPEGH/ISO/HEVC
    Duration                    : 1 h 34 min
    Bit rate                    : 30.3 Mb/s
    Width                       : 3 840 pixels
    Height                      : 2 160 pixels
    Display aspect ratio        : 16:9
    Frame rate mode             : Constant
    Frame rate                  : 23.976 (24000/1001) FPS
    Color space                 : YUV
    Chroma subsampling          : 4:2:0 (Type 2)
    Bit depth                   : 10 bits
    Bits/(Pixel*Frame)          : 0.152
    Stream size                 : 20.0 GiB (80%)
    Default                     : Yes
    Forced                      : No
    Color range                 : Limited
    Color primaries             : BT.2020
    Transfer characteristics    : PQ
    Matrix coefficients         : BT.2020 non-constant
    Mastering display color pri : Display P3
    Mastering display luminance : min: 0.0050 cd/m2, max: 4000 cd/m2
    Maximum Content Light Level : 1000 cd/m2
    Maximum Frame-Average Light : 644 cd/m2

    Audio #1
    ID                          : 2
    Format                      : DTS
    Format/Info                 : Digital Theater Systems
    Codec ID                    : A_DTS
    Duration                    : 1 h 34 min
    Bit rate mode               : Constant
    Bit rate                    : 768 kb/s
    Channel(s)                  : 6 channels
    Channel layout              : C L R Ls Rs LFE
    Sampling rate               : 48.0 kHz
    Frame rate                  : 93.750 FPS (512 SPF)
    Bit depth                   : 24 bits
    Compression mode            : Lossy
    Stream size                 : 520 MiB (2%)
    Language                    : Spanish
    Default                     : Yes
    Forced                      : No

    Audio #2
    ID                          : 3
    Format                      : DTS XLL X
    Format/Info                 : Digital Theater Systems
    Commercial name             : DTS-HD Master Audio
    Codec ID                    : A_DTS
    Duration                    : 1 h 34 min
    Bit rate mode               : Variable
    Bit rate                    : 6 678 kb/s
    Channel(s)                  : 8 channels
    Channel(s)_Original         : Object Based
    ChannelLayout_Original      : Object Based
    Sampling rate               : 48.0 kHz
    Frame rate                  : 93.750 FPS (512 SPF)
    Bit depth                   : 24 bits
    Stream size                 : 4.42 GiB (18%)
    Language                    : English
    Default                     : No
    Forced                      : No

    Text #1
    ID                          : 4
    Format                      : PGS
    Muxing mode                 : zlib
    Codec ID                    : S_HDMV/PGS
    Codec ID/Info               : Picture based subtitle format used on BDs/HD-DVDs
    Duration                    : 1 h 30 min
    Bit rate                    : 24.9 kb/s
    Count of elements           : 1920
    Stream size                 : 16.1 MiB (0%)
    Language                    : Spanish
    Default                     : No
    Forced                      : No

    Text #2
    ID                          : 5
    Format                      : PGS
    Muxing mode                 : zlib
    Codec ID                    : S_HDMV/PGS
    Codec ID/Info               : Picture based subtitle format used on BDs/HD-DVDs
    Duration                    : 1 h 22 min
    Bit rate                    : 1 393 b/s
    Count of elements           : 98
    Stream size                 : 842 KiB (0%)
    Language                    : Spanish
    Default                     : No
    Forced                      : No

    Menu
    00:00:00.000                : en:Chapter 01
    00:03:22.410                : en:Chapter 02
    00:06:31.891                : en:Chapter 03
    00:12:05.099                : en:Chapter 04
    00:13:50.496                : en:Chapter 05
    00:18:38.826                : en:Chapter 06
    00:23:06.843                : en:Chapter 07
    00:25:56.221                : en:Chapter 08
    00:30:40.838                : en:Chapter 09
    00:34:48.753                : en:Chapter 10
    00:39:43.047                : en:Chapter 11
    00:43:38.365                : en:Chapter 12
    00:48:19.187                : en:Chapter 13
    00:52:52.502                : en:Chapter 14
    00:56:46.110                : en:Chapter 15
    01:02:08.015                : en:Chapter 16
    01:09:23.867                : en:Chapter 17
    01:16:25.455                : en:Chapter 18
    01:22:41.581                : en:Chapter 19
    01:27:35.375                : en:Chapter 20

  • Peso: 25.0 GiB

Sinopsis

En una alegre urbanización con cuidados jardines rodeados por verjas de madera pintadas de blanco y llenos de rosales, sobresale una casa negra con el césped amarillento. Los vecinos ignoran que debajo de la vivienda hay un enorme escondite secreto. Allí está Gru, rodeado por un pequeño ejército de lacayos, planeando el mayor robo de toda la historia. ¡Va a hacerse con la luna!

Ficha técnica

Video trailer de la película

Enlaces de descarga

Rip de Bluray

Descargar Despicable Me (2010) REMUX 4K HDR Latino – CMHDD


Aportes de DPeliculasHDmega la pass es:dpeliculashdmega.org Aportes de CinemaniaHD la pass es:cinemaniahdd.com
Guardado en : Animación , Comedia , Familia

Películas relacionadas

  • Shotgun Wedding (2022) AMZN WEB-DL 1080p Latino

    Shotgun Wedding (2022) AMZN WEB-DL 1080p Latino

    2022
    Shotgun Wedding (2022) AMZN WEB-DL 1080p Latino

    1h 41m 2022

    Darcy y Tom reúnen a sus familias para la boda de destino definitiva, pero cuando toman como rehenes...

    Director: Jason Moore

    Género: Acción

    Actores: Steve Coulter

  • M3GAN (2023) AMZN WEB-DL 4K UHD HDR Latino

    M3GAN (2023) AMZN WEB-DL 4K UHD HDR Latino

    2022
    M3GAN (2023) AMZN WEB-DL 4K UHD HDR Latino

    1h 42m 2022

    Descargar M3GAN (2023) AMZN WEB-DL 4K UHD HDR Latino. Cuando Gemma se convierte en la cuidadora de su...

    Director: Stephen W. Moore

    Género: 4K HDR

    Actores: Violet McGraw

  • M3GAN (2022) MA WEB-DL 1080p Latino

    M3GAN (2022) MA WEB-DL 1080p Latino

    2022
    M3GAN (2022) MA WEB-DL 1080p Latino

    1h 42m 2022

    Descargar M3GAN (2022) MA WEB-DL 1080p Latino. Cuando Gemma se convierte en la cuidadora de su sobrina...

    Director: Stephen W. Moore

    Género: Ciencia ficción

    Actores: Violet McGraw

  • Noche sin paz (2022) PLACEBO Full HD 1080p Latino

    Noche sin paz (2022) PLACEBO Full HD 1080p Latino

    2022
    Noche sin paz (2022) PLACEBO Full HD 1080p Latino

    1h 41m 2022

    Descargar Noche sin paz (2022) PLACEBO Full HD 1080p Latino. Cuando un equipo de mercenarios irrumpe...

    Director: Tyshana Hobson

    Género: Acción

    Actores: Yoon Cha-Lee

descargar Despicable Me (2010) REMUX 4K HDR Latino – CMHDD 4K HDR 1080p gratis, Despicable Me (2010) REMUX 4K HDR Latino – CMHDD 4K HDR mega 1 link, Despicable Me (2010) REMUX 4K HDR Latino – CMHDD 4K HDR pelicula completa, descargar Despicable Me (2010) REMUX 4K HDR Latino – CMHDD 4K HDR gratis en mega.

Despicable Me (2010) REMUX 4K HDR Latino – CMHDD pelicula full hd, Despicable Me (2010) REMUX 4K HDR Latino – CMHDD mega latino, Despicable Me (2010) REMUX 4K HDR Latino – CMHDD 4k latino, Despicable Me (2010) REMUX 4K HDR Latino – CMHDD pelicula completa, Despicable Me (2010) REMUX 4K HDR Latino – CMHDD descargar gratis, descargar Despicable Me (2010) REMUX 4K HDR Latino – CMHDD pelicula latino, Despicable Me (2010) REMUX 4K HDR Latino – CMHDD 1 link mega, Despicable Me (2010) REMUX 4K HDR Latino – CMHDD 1 link google drive, Despicable Me (2010) REMUX 4K HDR Latino – CMHDD hd 1080p latino.
Comentarios 0