×

¿Problemas para descargar con Mozilla, EDGE? Deshabilita la opción "Abrir vinculos en una pestaña nueva" tal como lo muestra ésta imagen.

Gold: Desierto de oro (2022) REMUX 1080p Latino

166 vistas

Información de Gold: Desierto de oro (2022) REMUX 1080p Latino

Datos de la película

  • Calidad: Full 1080p
  • Audio: Español Latino AC3 2.0 WEB-DL - Ingles DTS 5.1 BLURAY
  • Subtitulos: Español Latino SRT- FORZADOS SRT
  • Resolución: 1920x1080p
  • Formato: MKV
  • Codec: H.264
  • Encoder: Melkor
  • Mediainfo: Clic para Mostrar Datos Ver
  • Desierto de oro (2022) REMUX 1080p Latino.mkv
    Format                      : Matroska
    Format version              : Version 4
    File size                   : 24.6 GiB
    Duration                    : 1 h 36 min
    Overall bit rate mode       : Variable
    Overall bit rate            : 36.5 Mb/s
    Movie name                  : Gold (2022) CinemaniaHDD.Net
    Encoded date                : UTC 2022-06-02 03:44:09
    Writing application         : mkvmerge v56.1.0 ('My Friend') 64-bit
    Writing library             : libebml v1.4.2 + libmatroska v1.6.4
    Attachments                 : CINEMANIAHD.png

    Video
    ID                          : 1
    ID in the original source m : 4113 (0x1011)
    Format                      : AVC
    Format/Info                 : Advanced Video Codec
    Format profile              : High@L4.1
    Format settings             : CABAC / 4 Ref Frames
    Format settings, CABAC      : Yes
    Format settings, Reference  : 4 frames
    Codec ID                    : V_MPEG4/ISO/AVC
    Duration                    : 1 h 36 min
    Bit rate mode               : Variable
    Bit rate                    : 32.8 Mb/s
    Maximum bit rate            : 36.0 Mb/s
    Width                       : 1 920 pixels
    Height                      : 1 080 pixels
    Display aspect ratio        : 16:9
    Frame rate mode             : Constant
    Frame rate                  : 24.000 FPS
    Color space                 : YUV
    Chroma subsampling          : 4:2:0
    Bit depth                   : 8 bits
    Scan type                   : Progressive
    Bits/(Pixel*Frame)          : 0.660
    Stream size                 : 22.2 GiB (90%)
    Title                       : REMUX HD1080p [CinemaniaHDD]
    Default                     : Yes
    Forced                      : Yes
    Original source medium      : Blu-ray

    Audio #1
    ID                          : 2
    Format                      : AC-3
    Format/Info                 : Audio Coding 3
    Commercial name             : Dolby Digital
    Codec ID                    : A_AC3
    Duration                    : 1 h 36 min
    Bit rate mode               : Constant
    Bit rate                    : 256 kb/s
    Channel(s)                  : 2 channels
    Channel layout              : L R
    Sampling rate               : 48.0 kHz
    Frame rate                  : 31.250 FPS (1536 SPF)
    Compression mode            : Lossy
    Stream size                 : 177 MiB (1%)
    Title                       : Español Latino [CinemaniaHDD]
    Language                    : Spanish
    Service kind                : Complete Main
    Default                     : Yes
    Forced                      : Yes

    Audio #2
    ID                          : 3
    ID in the original source m : 4353 (0x1101)
    Format                      : DTS XLL
    Format/Info                 : Digital Theater Systems
    Commercial name             : DTS-HD Master Audio
    Codec ID                    : A_DTS
    Duration                    : 1 h 36 min
    Bit rate mode               : Variable
    Bit rate                    : 3 390 kb/s
    Channel(s)                  : 6 channels
    Channel layout              : C L R Ls Rs LFE
    Sampling rate               : 48.0 kHz
    Frame rate                  : 93.750 FPS (512 SPF)
    Bit depth                   : 24 bits
    Compression mode            : Lossless
    Stream size                 : 2.29 GiB (9%)
    Title                       : Ingles [CinemaniaHDD]
    Language                    : English
    Default                     : No
    Forced                      : No
    Original source medium      : Blu-ray

    Text #1
    ID                          : 4
    Format                      : UTF-8
    Codec ID                    : S_TEXT/UTF8
    Codec ID/Info               : UTF-8 Plain Text
    Duration                    : 11 min 46 s
    Bit rate                    : 1 b/s
    Count of elements           : 3
    Stream size                 : 149 Bytes (0%)
    Title                       : Forzados-SRT [CinemaniaHDD]
    Language                    : Spanish
    Default                     : Yes
    Forced                      : Yes

    Text #2
    ID                          : 5
    Format                      : UTF-8
    Codec ID                    : S_TEXT/UTF8
    Codec ID/Info               : UTF-8 Plain Text
    Duration                    : 1 h 26 min
    Bit rate                    : 23 b/s
    Count of elements           : 470
    Stream size                 : 14.9 KiB (0%)
    Title                       : Español-SRT [CinemaniaHDD]
    Language                    : Spanish
    Default                     : No
    Forced                      : No

    Text #3
    ID                          : 6
    Format                      : UTF-8
    Codec ID                    : S_TEXT/UTF8
    Codec ID/Info               : UTF-8 Plain Text
    Duration                    : 1 h 32 min
    Bit rate                    : 19 b/s
    Count of elements           : 497
    Stream size                 : 13.3 KiB (0%)
    Title                       : Ingles [CinemaniaHDD]
    Language                    : English
    Default                     : No
    Forced                      : No

    Menu
    00:00:00.000                : Chapter 01
    00:09:39.208                : Chapter 02
    00:16:58.416                : Chapter 03
    00:26:21.166                : Chapter 04
    00:38:04.916                : Chapter 05
    00:44:34.875                : Chapter 06
    00:54:53.375                : Chapter 07
    01:06:27.583                : Chapter 08
    01:15:22.500                : Chapter 09
    01:25:15.541                : Chapter 10

  • Peso: 24.6 GiB

Sinopsis

Descargar Gold: Desierto de oro (2022) REMUX 1080p Latino. Cuando dos hombres que viajan por el desierto descubren el pedrusco de oro más grande que han visto en su vida, empiezan a soñar con la riqueza que les traerá, pero la avaricia toma las riendas. Tienen que extraer el oro de la tierra y para ello trazan un plan en el que uno de ellos tiene que ir a por el equipo necesario y el otro se tiene que quedar allí solo a su suerte.

Ficha técnica

Video trailer de la película

Enlaces de descarga

Rip de Bluray

Descargar Gold: Desierto de oro (2022) REMUX 1080p Latino




Aportes de DPeliculasHDmega la pass es:dpeliculashdmega.org Aportes de CinemaniaHD la pass es:cinemaniahdd.com
Guardado en : Acción , Remux , Suspenso

Películas relacionadas

descargar Gold: Desierto de oro (2022) REMUX 1080p Latino Full 1080p 1080p gratis, Gold: Desierto de oro (2022) REMUX 1080p Latino Full 1080p mega 1 link, Gold: Desierto de oro (2022) REMUX 1080p Latino Full 1080p pelicula completa, descargar Gold: Desierto de oro (2022) REMUX 1080p Latino Full 1080p gratis en mega.

Gold: Desierto de oro (2022) REMUX 1080p Latino pelicula full hd, Gold: Desierto de oro (2022) REMUX 1080p Latino mega latino, Gold: Desierto de oro (2022) REMUX 1080p Latino 4k latino, Gold: Desierto de oro (2022) REMUX 1080p Latino pelicula completa, Gold: Desierto de oro (2022) REMUX 1080p Latino descargar gratis, descargar Gold: Desierto de oro (2022) REMUX 1080p Latino pelicula latino, Gold: Desierto de oro (2022) REMUX 1080p Latino 1 link mega, Gold: Desierto de oro (2022) REMUX 1080p Latino 1 link google drive, Gold: Desierto de oro (2022) REMUX 1080p Latino hd 1080p latino.
Comentarios 0