×

¿Problemas para descargar con Mozilla, EDGE? Deshabilita la opción "Abrir vinculos en una pestaña nueva" tal como lo muestra ésta imagen.

Desierto (2015) NF WEB-DL 1080p V.O.S.E.

146 vistas

Información de Desierto (2015) NF WEB-DL 1080p V.O.S.E.

Datos de la película

  • Calidad: WEBDL
  • Audio: Ingles AC3 5.1 Netflix
  • Subtitulos: Español Latino SRT- FORZADOS SRT
  • Resolución: 1920x1080p
  • Formato: MKV
  • Codec: H.264
  • Encoder: Melkor
  • Mediainfo: Clic para Mostrar Datos Ver
  • Desierto (2015) NF WEB 1080p V.O.S.E..mkv
    Format                      : Matroska
    Format version              : Version 4
    File size                   : 2.94 GiB
    Duration                    : 1 h 27 min
    Overall bit rate mode       : Variable
    Overall bit rate            : 4 795 kb/s
    Movie name                  : Desierto (2015)  CinemaniaHDD.Net
    Encoded date                : UTC 2024-01-02 05:54:56
    Writing application         : mkvmerge v59.0.0 ('Shining Star') 64-bit
    Writing library             : libebml v1.4.2 + libmatroska v1.6.4
    Attachments                 : CINEMANIAHD.png
    Site                        : CinemaniaHDD.Net
    Uploader                    : Melkor

    Video
    ID                          : 1
    Format                      : AVC
    Format/Info                 : Advanced Video Codec
    Format profile              : Main@L4
    Format settings             : CABAC / 3 Ref Frames
    Format settings, CABAC      : Yes
    Format settings, Reference  : 3 frames
    Codec ID                    : V_MPEG4/ISO/AVC
    Duration                    : 1 h 27 min
    Bit rate mode               : Variable
    Bit rate                    : 4 153 kb/s
    Nominal bit rate            : 743 kb/s
    Maximum bit rate            : 5 667 kb/s
    Width                       : 1 920 pixels
    Height                      : 1 080 pixels
    Display aspect ratio        : 16:9
    Frame rate mode             : Constant
    Frame rate                  : 23.976 (24000/1001) FPS
    Color space                 : YUV
    Chroma subsampling          : 4:2:0
    Bit depth                   : 8 bits
    Scan type                   : Progressive
    Bits/(Pixel*Frame)          : 0.084
    Stream size                 : 2.55 GiB (87%)
    Title                       : WEB HD1080p [CinemaniaHDD]
    Writing library             : x264 core 148 r2727 7d026e8
    Encoding settings           : cabac=1 / ref=3 / deblock=1:0:0 / analyse=0x1:0x111 / me=umh / subme=10 / psy=1 / psy_rd=1.00:0.00 / mixed_ref=1 / me_range=24 / chroma_me=1 / trellis=2 / 8x8dct=0 / cqm=0 / deadzone=21,11 / fast_pskip=1 / chroma_qp_offset=-2 / threads=6 / lookahead_threads=1 / sliced_threads=0 / nr=0 / decimate=1 / interlaced=0 / bluray_compat=0 / stitchable=1 / constrained_intra=0 / bframes=2 / b_pyramid=0 / b_adapt=2 / b_bias=0 / direct=3 / weightb=1 / open_gop=0 / weightp=2 / keyint=240 / keyint_min=121 / scenecut=0 / intra_refresh=0 / rc_lookahead=48 / rc=2pass / mbtree=1 / bitrate=743 / ratetol=1.0 / qcomp=0.50 / qpmin=6 / qpmax=51 / qpstep=4 / cplxblur=20.0 / qblur=0.5 / vbv_maxrate=5667 / vbv_bufsize=9445 / nal_hrd=vbr / filler=0 / ip_ratio=1.40 / aq=1:1.00
    Default                     : Yes
    Forced                      : Yes

    Audio
    ID                          : 2
    Format                      : E-AC-3
    Format/Info                 : Enhanced AC-3
    Commercial name             : Dolby Digital Plus
    Codec ID                    : A_EAC3
    Duration                    : 1 h 27 min
    Bit rate mode               : Constant
    Bit rate                    : 640 kb/s
    Channel(s)                  : 6 channels
    Channel layout              : L R C LFE Ls Rs
    Sampling rate               : 48.0 kHz
    Frame rate                  : 31.250 FPS (1536 SPF)
    Compression mode            : Lossy
    Stream size                 : 402 MiB (13%)
    Title                       : Ingles [CinemaniaHDD]
    Language                    : English
    Service kind                : Complete Main
    Default                     : Yes
    Forced                      : Yes

    Text #1
    ID                          : 3
    Format                      : UTF-8
    Codec ID                    : S_TEXT/UTF8
    Codec ID/Info               : UTF-8 Plain Text
    Duration                    : 1 h 13 min
    Bit rate                    : 5 b/s
    Count of elements           : 138
    Stream size                 : 3.09 KiB (0%)
    Title                       : Español-SRT [CinemaniaHDD]
    Language                    : Spanish
    Default                     : No
    Forced                      : No

    Text #2
    ID                          : 4
    Format                      : UTF-8
    Codec ID                    : S_TEXT/UTF8
    Codec ID/Info               : UTF-8 Plain Text
    Duration                    : 1 h 19 min
    Bit rate                    : 23 b/s
    Count of elements           : 615
    Stream size                 : 13.6 KiB (0%)
    Title                       : Ingles-SRT [CinemaniaHDD]
    Language                    : English
    Default                     : No
    Forced                      : No

  • Peso: 2.94 GiB

Sinopsis

Descargar Desierto (2015) NF WEB-DL 1080p V.O.S.E. Moisés (Gael García Bernal) junto con otros indocumentados están cruzando a pie un estrecho camino de la frontera entre México y Estados Unidos buscando tener nuevas oportunidades del otro lado y reencontrarse con sus seres queridos. Este grupo, es descubierto por Sam, (Jeffrey Dean Morgan) un «vigilante» demente que disfruta eliminando a los inmigrantes. Ante las inclemencias del desierto, Moisés y Sam se enrolan en una persecución en la que solo el más fuerte, sobrevivirá.

Ficha técnica

  • Titulo original: Desierto
  • Fecha de lanzamiento: 12-04-2015 (France, Mexico, United States of America)
  • Director: Jonás Cuarón
  • Género: Drama, Suspenso

Video trailer de la película

Enlaces de descarga

Rip de Bluray

Descargar Desierto (2015) NF WEB-DL 1080p V.O.S.E.




Aportes de DPeliculasHDmega la pass es:dpeliculashdmega.org Aportes de CinemaniaHD la pass es:cinemaniahdd.com Aportes recientes:cinemaniahdd.net
Guardado en : Drama , Suspenso

Películas relacionadas

descargar Desierto (2015) NF WEB-DL 1080p V.O.S.E. WEBDL 1080p gratis, Desierto (2015) NF WEB-DL 1080p V.O.S.E. WEBDL mega 1 link, Desierto (2015) NF WEB-DL 1080p V.O.S.E. WEBDL pelicula completa, descargar Desierto (2015) NF WEB-DL 1080p V.O.S.E. WEBDL gratis en mega.

Desierto (2015) NF WEB-DL 1080p V.O.S.E. pelicula full hd, Desierto (2015) NF WEB-DL 1080p V.O.S.E. mega latino, Desierto (2015) NF WEB-DL 1080p V.O.S.E. 4k latino, Desierto (2015) NF WEB-DL 1080p V.O.S.E. pelicula completa, Desierto (2015) NF WEB-DL 1080p V.O.S.E. descargar gratis, descargar Desierto (2015) NF WEB-DL 1080p V.O.S.E. pelicula latino, Desierto (2015) NF WEB-DL 1080p V.O.S.E. 1 link mega, Desierto (2015) NF WEB-DL 1080p V.O.S.E. 1 link google drive, Desierto (2015) NF WEB-DL 1080p V.O.S.E. hd 1080p latino.
Comentarios 0