×

¿Problemas para descargar con Mozilla, EDGE? Deshabilita la opción "Abrir vinculos en una pestaña nueva" tal como lo muestra ésta imagen.

(Des)encanto (2019) Temporada 2 NF WEB-DL 1080p Latino

1.639 vistas

Información de (Des)encanto (2019) Temporada 2 NF WEB-DL 1080p Latino

Datos de la película

  • Calidad: WEBDL
  • Audio: Español Latino AC3 5.1 Netflix - Ingles AC3 5.1 Netflix
  • Subtitulos: Español Latino SRT- FORZADOS SRT
  • Resolución: 1920x1080
  • Formato: MKV
  • Codec: H.264
  • Encoder: cinemaniahdd
  • Mediainfo: Clic para Mostrar Datos Ver
  • Disenchantment S02E02 NF WEB-DL 1080p Latino.mkv
    Format                      : Matroska
    Format version              : Version 4
    File size                   : 1.13 GiB
    Duration                    : 27 min 40 s
    Overall bit rate mode       : Variable
    Overall bit rate            : 5 856 kb/s
    Movie name                  : Disenchantment S02E02 - CinemaniaHDD.Net
    Encoded date                : UTC 2019-09-20 07:22:39
    Writing application         : mkvmerge v35.0.0 ('All The Love In The World') 64-bit
    Writing library             : libebml v1.3.9 + libmatroska v1.5.2

    Video
    ID                          : 1
    Format                      : AVC
    Format/Info                 : Advanced Video Codec
    Format profile              : Main@L4
    Format settings             : CABAC / 3 Ref Frames
    Format settings, CABAC      : Yes
    Format settings, ReFrames   : 3 frames
    Codec ID                    : V_MPEG4/ISO/AVC
    Duration                    : 27 min 40 s
    Bit rate mode               : Variable
    Bit rate                    : 5 087 kb/s
    Nominal bit rate            : 5 360 kb/s
    Maximum bit rate            : 8 040 kb/s
    Width                       : 1 920 pixels
    Height                      : 1 080 pixels
    Display aspect ratio        : 16:9
    Frame rate mode             : Constant
    Frame rate                  : 23.976 (24000/1001) FPS
    Color space                 : YUV
    Chroma subsampling          : 4:2:0
    Bit depth                   : 8 bits
    Scan type                   : Progressive
    Bits/(Pixel*Frame)          : 0.102
    Stream size                 : 1 007 MiB (87%)
    Title                       : CinemaniaHDD
    Writing library             : x264 core 148 r2715 7e75228
    Encoding settings           : cabac=1 / ref=3 / deblock=1:0:0 / analyse=0x1:0x111 / me=umh / subme=10 / psy=1 / psy_rd=1.00:0.00 / mixed_ref=1 / me_range=24 / chroma_me=1 / trellis=2 / 8x8dct=0 / cqm=0 / deadzone=21,11 / fast_pskip=1 / chroma_qp_offset=-2 / threads=8 / lookahead_threads=1 / sliced_threads=0 / nr=0 / decimate=1 / interlaced=0 / bluray_compat=0 / stitchable=1 / constrained_intra=0 / bframes=2 / b_pyramid=0 / b_adapt=2 / b_bias=0 / direct=3 / weightb=1 / open_gop=0 / weightp=2 / keyint=48 / keyint_min=25 / scenecut=0 / intra_refresh=0 / rc_lookahead=48 / rc=2pass / mbtree=1 / bitrate=5360 / ratetol=1.0 / qcomp=0.50 / qpmin=6 / qpmax=51 / qpstep=4 / cplxblur=20.0 / qblur=0.5 / vbv_maxrate=8040 / vbv_bufsize=10720 / nal_hrd=vbr / filler=0 / ip_ratio=1.40 / aq=1:1.00
    Default                     : Yes
    Forced                      : No

    Audio #1
    ID                          : 2
    Format                      : AC-3
    Format/Info                 : Audio Coding 3
    Commercial name             : Dolby Digital
    Codec ID                    : A_AC3
    Duration                    : 27 min 40 s
    Bit rate mode               : Constant
    Bit rate                    : 384 kb/s
    Channel(s)                  : 6 channels
    Channel layout              : L R C LFE Ls Rs
    Sampling rate               : 48.0 kHz
    Frame rate                  : 31.250 FPS (1536 SPF)
    Bit depth                   : 16 bits
    Compression mode            : Lossy
    Stream size                 : 76.0 MiB (7%)
    Title                       : Español latino [CinemaniaHDD]
    Language                    : Spanish
    Service kind                : Complete Main
    Default                     : No
    Forced                      : No

    Audio #2
    ID                          : 3
    Format                      : AC-3
    Format/Info                 : Audio Coding 3
    Commercial name             : Dolby Digital
    Codec ID                    : A_AC3
    Duration                    : 27 min 40 s
    Bit rate mode               : Constant
    Bit rate                    : 384 kb/s
    Channel(s)                  : 6 channels
    Channel layout              : L R C LFE Ls Rs
    Sampling rate               : 48.0 kHz
    Frame rate                  : 31.250 FPS (1536 SPF)
    Bit depth                   : 16 bits
    Compression mode            : Lossy
    Stream size                 : 76.0 MiB (7%)
    Title                       : Inglés [CinemaniaHDD]
    Language                    : English
    Service kind                : Complete Main
    Default                     : No
    Forced                      : No

    Text #1
    ID                          : 4
    Format                      : UTF-8
    Codec ID                    : S_TEXT/UTF8
    Codec ID/Info               : UTF-8 Plain Text
    Duration                    : 26 min 25 s
    Bit rate                    : 1 b/s
    Count of elements           : 8
    Stream size                 : 239 Bytes (0%)
    Title                       : Forzados [CinemaniaHDD]
    Language                    : Spanish
    Default                     : No
    Forced                      : Yes

    Text #2
    ID                          : 5
    Format                      : UTF-8
    Codec ID                    : S_TEXT/UTF8
    Codec ID/Info               : UTF-8 Plain Text
    Duration                    : 26 min 25 s
    Bit rate                    : 66 b/s
    Count of elements           : 379
    Stream size                 : 13.0 KiB (0%)
    Title                       : Español latino [CinemaniaHDD]
    Language                    : Spanish
    Default                     : No
    Forced                      : No

     

  • Peso: 1.13 GiB c/u

Sinopsis

El deber llama a Bean, pero ella solo piensa en beber. La rebelde princesa enfurece al rey y siembra el caos con sus amigos, un demonio y un elfo.

Ficha técnica

Video trailer de la película

Enlaces de descarga

Rip de Bluray

Descargar (Des)encanto (2019) Temporada 2 NF WEB-DL 1080p Latino




Aportes de DPeliculasHDmega la pass es:dpeliculashdmega.org Aportes de CinemaniaHD la pass es:cinemaniahdd.com

Películas relacionadas

  • Men in Black (1997) REMUX 4K HDR Latino – CMHDD

    Men in Black (1997) REMUX 4K HDR Latino – CMHDD

    1997
    Men in Black (1997) REMUX 4K HDR Latino – CMHDD

    1h 34m 1997

    Durante muchos años los extraterrestres han vivido en la Tierra, mezclados con los humanos, sin que...

    Director: Tyrone S. Walker

    Género: Acción

    Actores: Willie C. Carpenter

  • Blonde (2022) NF WEB-DL 1080p Latino

    Blonde (2022) NF WEB-DL 1080p Latino

    2022
    Blonde (2022) NF WEB-DL 1080p Latino

    2h 46m 2022

    Descargar Blonde (2022) NF WEB-DL 1080p Latino. Basada en el bestseller de la cinco veces finalista al...

    Director: Kristin Bree Calabrese

    Género: Drama

    Actores: Xavier Samuel

  • Star Wars: Andor (2022) Temporada 1 WEB-DL 1080p Latino

    Star Wars: Andor (2022) Temporada 1 WEB-DL 1080p Latino

    2022
    Star Wars: Andor (2022) Temporada 1 WEB-DL 1080p Latino

    0h 0m 2022

    Descargar Star Wars: Andor (2022) Temporada 1 WEB-DL 1080p Latino. Serie precuela de 'Star Wars; Rogue...

    Director: Tony Gilroy

    Género: Action & Adventure

    Actores: Stellan Skarsgård

descargar (Des)encanto (2019) Temporada 2 NF WEB-DL 1080p Latino WEBDL 1080p gratis, (Des)encanto (2019) Temporada 2 NF WEB-DL 1080p Latino WEBDL mega 1 link, (Des)encanto (2019) Temporada 2 NF WEB-DL 1080p Latino WEBDL pelicula completa, descargar (Des)encanto (2019) Temporada 2 NF WEB-DL 1080p Latino WEBDL gratis en mega.

(Des)encanto (2019) Temporada 2 NF WEB-DL 1080p Latino pelicula full hd, (Des)encanto (2019) Temporada 2 NF WEB-DL 1080p Latino mega latino, (Des)encanto (2019) Temporada 2 NF WEB-DL 1080p Latino 4k latino, (Des)encanto (2019) Temporada 2 NF WEB-DL 1080p Latino pelicula completa, (Des)encanto (2019) Temporada 2 NF WEB-DL 1080p Latino descargar gratis, descargar (Des)encanto (2019) Temporada 2 NF WEB-DL 1080p Latino pelicula latino, (Des)encanto (2019) Temporada 2 NF WEB-DL 1080p Latino 1 link mega, (Des)encanto (2019) Temporada 2 NF WEB-DL 1080p Latino 1 link google drive, (Des)encanto (2019) Temporada 2 NF WEB-DL 1080p Latino hd 1080p latino.
Comentarios 0