×

¿Problemas para descargar con Mozilla, EDGE? Deshabilita la opción "Abrir vinculos en una pestaña nueva" tal como lo muestra ésta imagen.

Descuida, yo te cuido (2021) PLACEBO Full HD 1080p Latino

249 vistas

Información de Descuida, yo te cuido (2021) PLACEBO Full HD 1080p Latino

Datos de la película

  • Calidad: Full 1080p
  • Audio: Se especifica abajo de la Sinopsis
  • Subtitulos: Español Latino SRT- FORZADOS SRT
  • Resolución: 1920x1080p
  • Formato: MKV
  • Codec: H.264
  • Encoder: Melkor
  • Mediainfo: Clic para Mostrar Datos Ver
  • Descuida Yo Te cuido (2020) PLACEBO 1080p Latino.mkv
    Format                      : Matroska
    Format version              : Version 4
    File size                   : 10.1 GiB
    Duration                    : 1 h 58 min
    Overall bit rate            : 12.2 Mb/s
    Movie name                  : I Care a Lot (2020) CinemaniaHDD.Net
    Encoded date                : UTC 2021-06-27 02:19:02
    Writing application         : mkvmerge v56.1.0 ('My Friend') 64-bit
    Writing library             : libebml v1.4.2 + libmatroska v1.6.4
    Attachments                 : CINEMANIAHD.png

    Video
    ID                          : 1
    Format                      : AVC
    Format/Info                 : Advanced Video Codec
    Format profile              : High@L4.1
    Format settings             : CABAC / 4 Ref Frames
    Format settings, CABAC      : Yes
    Format settings, Reference  : 4 frames
    Codec ID                    : V_MPEG4/ISO/AVC
    Duration                    : 1 h 58 min
    Bit rate                    : 10.2 Mb/s
    Width                       : 1 920 pixels
    Height                      : 1 080 pixels
    Display aspect ratio        : 16:9
    Frame rate mode             : Constant
    Frame rate                  : 24.000 FPS
    Color space                 : YUV
    Chroma subsampling          : 4:2:0
    Bit depth                   : 8 bits
    Scan type                   : Progressive
    Bits/(Pixel*Frame)          : 0.205
    Stream size                 : 8.42 GiB (83%)
    Title                       : Full HD1080p [CinemaniaHDD]
    Writing library             : x264 core 157 r2935 545de2f
    Encoding settings           : cabac=1 / ref=4 / deblock=1:0:0 / analyse=0x3:0x133 / me=tesa / subme=11 / psy=1 / psy_rd=1.00:0.00 / mixed_ref=1 / me_range=24 / chroma_me=1 / trellis=2 / 8x8dct=1 / cqm=0 / deadzone=21,11 / fast_pskip=0 / chroma_qp_offset=-2 / threads=24 / lookahead_threads=6 / sliced_threads=0 / nr=0 / decimate=1 / interlaced=0 / bluray_compat=0 / constrained_intra=0 / bframes=16 / b_pyramid=2 / b_adapt=2 / b_bias=0 / direct=3 / weightb=1 / open_gop=0 / weightp=2 / keyint=240 / keyint_min=24 / scenecut=40 / intra_refresh=0 / rc_lookahead=60 / rc=crf / mbtree=1 / crf=19.0 / qcomp=0.60 / qpmin=0 / qpmax=69 / qpstep=4 / vbv_maxrate=62500 / vbv_bufsize=78125 / crf_max=0.0 / nal_hrd=none / filler=0 / ip_ratio=1.40 / aq=1:1.00
    Default                     : Yes
    Forced                      : Yes
    Color range                 : Limited
    Color primaries             : BT.709
    Transfer characteristics    : BT.709
    Matrix coefficients         : BT.709

    Audio #1
    ID                          : 2
    Format                      : AC-3
    Format/Info                 : Audio Coding 3
    Commercial name             : Dolby Digital
    Codec ID                    : A_AC3
    Duration                    : 1 h 58 min
    Bit rate mode               : Constant
    Bit rate                    : 640 kb/s
    Channel(s)                  : 6 channels
    Channel layout              : L R C LFE Ls Rs
    Sampling rate               : 48.0 kHz
    Frame rate                  : 31.250 FPS (1536 SPF)
    Compression mode            : Lossy
    Stream size                 : 542 MiB (5%)
    Title                       : Español Latino AC3 [CinemaniaHDD]
    Language                    : Spanish
    Service kind                : Complete Main
    Default                     : Yes
    Forced                      : Yes

    Audio #2
    ID                          : 3
    Format                      : DTS
    Format/Info                 : Digital Theater Systems
    Codec ID                    : A_DTS
    Duration                    : 1 h 58 min
    Bit rate mode               : Constant
    Bit rate                    : 768 kb/s
    Channel(s)                  : 6 channels
    Channel layout              : C L R Ls Rs LFE
    Sampling rate               : 48.0 kHz
    Frame rate                  : 93.750 FPS (512 SPF)
    Bit depth                   : 24 bits
    Compression mode            : Lossy
    Stream size                 : 651 MiB (6%)
    Title                       : Ingles [CinemaniaHDD]
    Language                    : English
    Default                     : No
    Forced                      : No

    Audio #3
    ID                          : 4
    Format                      : E-AC-3
    Format/Info                 : Enhanced AC-3
    Commercial name             : Dolby Digital Plus
    Codec ID                    : A_EAC3
    Duration                    : 1 h 58 min
    Bit rate mode               : Constant
    Bit rate                    : 640 kb/s
    Channel(s)                  : 6 channels
    Channel layout              : L R C LFE Ls Rs
    Sampling rate               : 48.0 kHz
    Frame rate                  : 31.250 FPS (1536 SPF)
    Compression mode            : Lossy
    Delay relative to video     : 9 s 0 ms
    Stream size                 : 542 MiB (5%)
    Title                       : Español Latino EAC3 [CinemaniaHDD]
    Language                    : Spanish
    Service kind                : Complete Main
    Default                     : No
    Forced                      : No

    Text #1
    ID                          : 5
    Format                      : UTF-8
    Codec ID                    : S_TEXT/UTF8
    Codec ID/Info               : UTF-8 Plain Text
    Duration                    : 1 h 50 min
    Bit rate                    : 0 b/s
    Count of elements           : 22
    Stream size                 : 543 Bytes (0%)
    Title                       : Forzados-SRT [CinemaniaHDD]
    Language                    : Spanish
    Default                     : Yes
    Forced                      : No

    Text #2
    ID                          : 6
    Format                      : UTF-8
    Codec ID                    : S_TEXT/UTF8
    Codec ID/Info               : UTF-8 Plain Text
    Duration                    : 1 h 57 min
    Bit rate                    : 45 b/s
    Count of elements           : 1253
    Stream size                 : 38.9 KiB (0%)
    Title                       : Español-SRT [CinemaniaHDD]
    Language                    : Spanish
    Default                     : No
    Forced                      : No

    Text #3
    ID                          : 7
    Format                      : UTF-8
    Codec ID                    : S_TEXT/UTF8
    Codec ID/Info               : UTF-8 Plain Text
    Duration                    : 1 h 51 min
    Bit rate                    : 54 b/s
    Count of elements           : 1339
    Stream size                 : 44.8 KiB (0%)
    Title                       : Ingles-SRT [CinemaniaHDD]
    Language                    : Spanish
    Default                     : No
    Forced                      : No

    Menu
    00:00:00.000                : Chapter 01
    00:10:46.000                : Chapter 02
    00:15:34.541                : Chapter 03
    00:28:03.000                : Chapter 04
    00:36:55.291                : Chapter 05
    00:48:09.291                : Chapter 06
    01:00:23.458                : Chapter 07
    01:12:57.666                : Chapter 08
    01:22:12.916                : Chapter 09
    01:28:47.083                : Chapter 10
    01:41:40.500                : Chapter 11
    01:48:07.666                : Chapter 12

  • Peso: 10.1 GiB

Sinopsis

Descargar Descuida, yo te cuido (2021) PLACEBO Full HD 1080p Latino. Marla Grayson (Rosamund Pike) no tiene escrúpulos a la hora de beneficiarse de los demás. Después de haberse aprovechado de docenas de jubilados como tutora legal, ella y su compañera Fran (Eiza González) ven a Jennifer Peterson (Dianne Wiest) como la nueva víctima: una gallina de los huevos de oro a la que pueden desplumar fácilmente. Pero mientras intentan llevar a cabo su plan, Marla y Fran descubren que la señora Peterson no es lo que creían, y que sus actos han entorpecido la labor de un importante criminal (Peter Dinklage).

Español Latino AC3 & EAC3 5.1 – Ingles DTS 5.1

Ficha técnica

Video trailer de la película

Enlaces de descarga

Rip de Bluray

Descargar Descuida, yo te cuido (2021) PLACEBO Full HD 1080p Latino




Aportes de DPeliculasHDmega la pass es:dpeliculashdmega.org Aportes de CinemaniaHD la pass es:cinemaniahdd.com

Películas relacionadas

descargar Descuida, yo te cuido (2021) PLACEBO Full HD 1080p Latino Full 1080p 1080p gratis, Descuida, yo te cuido (2021) PLACEBO Full HD 1080p Latino Full 1080p mega 1 link, Descuida, yo te cuido (2021) PLACEBO Full HD 1080p Latino Full 1080p pelicula completa, descargar Descuida, yo te cuido (2021) PLACEBO Full HD 1080p Latino Full 1080p gratis en mega.

Descuida, yo te cuido (2021) PLACEBO Full HD 1080p Latino pelicula full hd, Descuida, yo te cuido (2021) PLACEBO Full HD 1080p Latino mega latino, Descuida, yo te cuido (2021) PLACEBO Full HD 1080p Latino 4k latino, Descuida, yo te cuido (2021) PLACEBO Full HD 1080p Latino pelicula completa, Descuida, yo te cuido (2021) PLACEBO Full HD 1080p Latino descargar gratis, descargar Descuida, yo te cuido (2021) PLACEBO Full HD 1080p Latino pelicula latino, Descuida, yo te cuido (2021) PLACEBO Full HD 1080p Latino 1 link mega, Descuida, yo te cuido (2021) PLACEBO Full HD 1080p Latino 1 link google drive, Descuida, yo te cuido (2021) PLACEBO Full HD 1080p Latino hd 1080p latino.
Comentarios 0