×

¿Problemas para descargar con Mozilla, EDGE? Deshabilita la opción "Abrir vinculos en una pestaña nueva" tal como lo muestra ésta imagen.

Desconectada (2023) REMUX 1080p Latino

180 vistas

Información de Desconectada (2023) REMUX 1080p Latino

Datos de la película

  • Calidad: Full 1080p
  • Audio: Español Latino AC3 5.1 BLURAY - Ingles DTS 5.1 BLURAY
  • Subtitulos: Español Latino PGS - Ingles PGS
  • Resolución: 1920x1080p
  • Formato: MKV
  • Codec: H.264
  • Encoder: Melkor
  • Mediainfo: Clic para Mostrar Datos Ver
  • Desconectada (2023) REMUX 1080p Latino.mkv
    Format                      : Matroska
    Format version              : Version 4
    File size                   : 26.7 GiB
    Duration                    : 1 h 50 min
    Overall bit rate mode       : Variable
    Overall bit rate            : 34.6 Mb/s
    Movie name                  : Missing (2023) CinemaniaHDD.Net
    Encoded date                : UTC 2023-03-24 06:55:00
    Writing application         : mkvmerge v56.1.0 ('My Friend') 64-bit
    Writing library             : libebml v1.4.2 + libmatroska v1.6.4
    Attachments                 : CINEMANIAHD.png
    Site                        : CinemaniaHDD.Net
    Uploader                    : Melkor

    Video
    ID                          : 1
    ID in the original source m : 4113 (0x1011)
    Format                      : AVC
    Format/Info                 : Advanced Video Codec
    Format profile              : High@L4.1
    Format settings             : CABAC / 2 Ref Frames
    Format settings, CABAC      : Yes
    Format settings, Reference  : 2 frames
    Format settings, GOP        : M=1, N=10
    Codec ID                    : V_MPEG4/ISO/AVC
    Duration                    : 1 h 50 min
    Bit rate mode               : Variable
    Bit rate                    : 31.7 Mb/s
    Width                       : 1 920 pixels
    Height                      : 1 080 pixels
    Display aspect ratio        : 16:9
    Frame rate mode             : Constant
    Frame rate                  : 23.976 (24000/1001) FPS
    Color space                 : YUV
    Chroma subsampling          : 4:2:0
    Bit depth                   : 8 bits
    Scan type                   : Progressive
    Bits/(Pixel*Frame)          : 0.638
    Stream size                 : 24.5 GiB (92%)
    Title                       : REMUX HD1080p [CinemaniaHDD]
    Default                     : Yes
    Forced                      : Yes
    Original source medium      : Blu-ray

    Audio #1
    ID                          : 2
    ID in the original source m : 4356 (0x1104)
    Format                      : AC-3
    Format/Info                 : Audio Coding 3
    Commercial name             : Dolby Digital
    Codec ID                    : A_AC3
    Duration                    : 1 h 50 min
    Bit rate mode               : Constant
    Bit rate                    : 640 kb/s
    Channel(s)                  : 6 channels
    Channel layout              : L R C LFE Ls Rs
    Sampling rate               : 48.0 kHz
    Frame rate                  : 31.250 FPS (1536 SPF)
    Compression mode            : Lossy
    Stream size                 : 507 MiB (2%)
    Title                       : Español Latino [CinemaniaHDD]
    Language                    : Spanish
    Service kind                : Complete Main
    Default                     : Yes
    Forced                      : Yes
    Original source medium      : Blu-ray

    Audio #2
    ID                          : 3
    ID in the original source m : 4352 (0x1100)
    Format                      : DTS XLL
    Format/Info                 : Digital Theater Systems
    Commercial name             : DTS-HD Master Audio
    Codec ID                    : A_DTS
    Duration                    : 1 h 50 min
    Bit rate mode               : Variable
    Bit rate                    : 2 181 kb/s
    Channel(s)                  : 6 channels
    Channel layout              : C L R Ls Rs LFE
    Sampling rate               : 48.0 kHz
    Frame rate                  : 93.750 FPS (512 SPF)
    Bit depth                   : 16 bits
    Compression mode            : Lossless
    Stream size                 : 1.69 GiB (6%)
    Title                       : Ingles [CinemaniaHDD]
    Language                    : English
    Default                     : No
    Forced                      : No
    Original source medium      : Blu-ray

    Text #1
    ID                          : 4
    Format                      : PGS
    Muxing mode                 : zlib
    Codec ID                    : S_HDMV/PGS
    Codec ID/Info               : Picture based subtitle format used on BDs/HD-DVDs
    Duration                    : 1 h 48 min
    Bit rate                    : 10.6 kb/s
    Count of elements           : 998
    Stream size                 : 8.19 MiB (0%)
    Title                       : Forzados-PGS [CinemaniaHDD]
    Language                    : Spanish
    Default                     : No
    Forced                      : No

    Text #2
    ID                          : 5
    ID in the original source m : 4611 (0x1203)
    Format                      : PGS
    Muxing mode                 : zlib
    Codec ID                    : S_HDMV/PGS
    Codec ID/Info               : Picture based subtitle format used on BDs/HD-DVDs
    Duration                    : 1 h 49 min
    Bit rate                    : 35.0 kb/s
    Count of elements           : 3188
    Stream size                 : 27.4 MiB (0%)
    Title                       : Español-PGS [CinemaniaHDD]
    Language                    : Spanish
    Default                     : No
    Forced                      : No
    Original source medium      : Blu-ray

    Text #3
    ID                          : 6
    ID in the original source m : 4609 (0x1201)
    Format                      : PGS
    Muxing mode                 : zlib
    Codec ID                    : S_HDMV/PGS
    Codec ID/Info               : Picture based subtitle format used on BDs/HD-DVDs
    Duration                    : 1 h 42 min
    Bit rate                    : 29.4 kb/s
    Count of elements           : 2264
    Stream size                 : 21.5 MiB (0%)
    Title                       : Ingles [CinemaniaHDD]
    Language                    : English
    Default                     : No
    Forced                      : No
    Original source medium      : Blu-ray

    Text #4
    ID                          : 7
    Format                      : UTF-8
    Codec ID                    : S_TEXT/UTF8
    Codec ID/Info               : UTF-8 Plain Text
    Duration                    : 1 h 41 min
    Bit rate                    : 17 b/s
    Count of elements           : 498
    Stream size                 : 12.7 KiB (0%)
    Title                       : Forzados-SRT [CinemaniaHDD]
    Language                    : Spanish
    Default                     : Yes
    Forced                      : Yes

    Text #5
    ID                          : 8
    Format                      : UTF-8
    Codec ID                    : S_TEXT/UTF8
    Codec ID/Info               : UTF-8 Plain Text
    Duration                    : 1 h 42 min
    Bit rate                    : 70 b/s
    Count of elements           : 1529
    Stream size                 : 53.5 KiB (0%)
    Title                       : Español-SRT [CinemaniaHDD]
    Language                    : Spanish
    Default                     : No
    Forced                      : No

    Menu
    00:00:00.000                : Chapter 01
    00:04:57.422                : Chapter 02
    00:13:28.432                : Chapter 03
    00:19:20.117                : Chapter 04
    00:25:03.335                : Chapter 05
    00:28:05.016                : Chapter 06
    00:32:03.212                : Chapter 07
    00:34:34.363                : Chapter 08
    00:37:47.139                : Chapter 09
    00:45:35.524                : Chapter 10
    00:52:36.528                : Chapter 11
    01:01:25.098                : Chapter 12
    01:06:37.868                : Chapter 13
    01:14:21.707                : Chapter 14
    01:22:35.909                : Chapter 15
    01:31:16.846                : Chapter 16

  • Peso: 26.7 GiB

Sinopsis

Descargar Desconectada (2023) REMUX 1080p Latino. Cuando su madre desaparece estando de vacaciones en Colombia con su nuevo novio, la búsqueda de respuestas por parte de June se ve entorpecida por la burocracia internacional. Atascada en Los Ángeles, a miles de kilómetros de distancia, June utiliza toda la tecnología a su disposición para intentar encontrarla antes de que sea demasiado tarde. Pero cuanto más profundiza en su búsqueda, su investigación digital levanta más preguntas que respuestas… y cuando June revela secretos sobre su madre, se da cuenta de que nunca la conoció realmente. Secuela de ‘Searching’ (2018).

Ficha técnica

Video trailer de la película

Enlaces de descarga

Rip de Bluray

Descargar Desconectada (2023) REMUX 1080p Latino




Aportes de DPeliculasHDmega la pass es:dpeliculashdmega.org Aportes de CinemaniaHD la pass es:cinemaniahdd.com Aportes recientes:cinemaniahdd.net
Guardado en : Drama , Misterio , Remux , Suspenso

Películas relacionadas

descargar Desconectada (2023) REMUX 1080p Latino Full 1080p 1080p gratis, Desconectada (2023) REMUX 1080p Latino Full 1080p mega 1 link, Desconectada (2023) REMUX 1080p Latino Full 1080p pelicula completa, descargar Desconectada (2023) REMUX 1080p Latino Full 1080p gratis en mega.

Desconectada (2023) REMUX 1080p Latino pelicula full hd, Desconectada (2023) REMUX 1080p Latino mega latino, Desconectada (2023) REMUX 1080p Latino 4k latino, Desconectada (2023) REMUX 1080p Latino pelicula completa, Desconectada (2023) REMUX 1080p Latino descargar gratis, descargar Desconectada (2023) REMUX 1080p Latino pelicula latino, Desconectada (2023) REMUX 1080p Latino 1 link mega, Desconectada (2023) REMUX 1080p Latino 1 link google drive, Desconectada (2023) REMUX 1080p Latino hd 1080p latino.
Comentarios 0