×

¿Problemas para descargar con Mozilla, EDGE? Deshabilita la opción "Abrir vinculos en una pestaña nueva" tal como lo muestra ésta imagen.

Desafiantes (2024) WEB-DL 4K UHD HDR Latino

88 vistas

Información de Desafiantes (2024) WEB-DL 4K UHD HDR Latino

Datos de la película

  • Calidad: WEBDL
  • Audio: Español Latino AC3 5.1 WEB-DL - Ingles AC3 5.1 WEB-DL
  • Subtitulos: Español Latino SRT- FORZADOS SRT
  • Resolución: 3822x2066p
  • Formato: MKV
  • Codec: HEVC
  • Encoder: Melkor
  • Mediainfo: Clic para Mostrar Datos Ver
  • Challengers (2024) WEB UHD HDR Latino.mkv
    Format                      : Matroska
    Format version              : Version 4
    File size                   : 23.8 GiB
    Duration                    : 2 h 11 min
    Overall bit rate            : 26.0 Mb/s
    Movie name                  : Challengers (2024) CinemaniaHDD.Net
    Encoded date                : UTC 2024-05-17 16:47:12
    Writing application         : mkvmerge v56.1.0 ('My Friend') 64-bit
    Writing library             : libebml v1.4.2 + libmatroska v1.6.4
    Attachments                 : CINEMANIAHD.png
    Site                        : CinemaniaHDD.Net
    Uploader                    : Melkor

    Video
    ID                          : 1
    Format                      : HEVC
    Format/Info                 : High Efficiency Video Coding
    Format profile              : Main 10@L5@High
    HDR format                  : Dolby Vision, Version 1.0, dvhe.08.06, BL+RPU, HDR10 compatible / SMPTE ST 2094 App 4, Version 1, HDR10+ Profile B compatible
    Codec ID                    : V_MPEGH/ISO/HEVC
    Duration                    : 2 h 11 min
    Bit rate                    : 24.8 Mb/s
    Width                       : 3 822 pixels
    Height                      : 2 066 pixels
    Display aspect ratio        : 1.85:1
    Frame rate mode             : Constant
    Frame rate                  : 23.976 (24000/1001) FPS
    Color space                 : YUV
    Chroma subsampling          : 4:2:0 (Type 2)
    Bit depth                   : 10 bits
    Bits/(Pixel*Frame)          : 0.131
    Stream size                 : 22.7 GiB (96%)
    Title                       : Web 2160p HDR [CinemaniaHDD]
    Language                    : English
    Default                     : Yes
    Forced                      : No
    Color range                 : Limited
    Color primaries             : BT.2020
    Transfer characteristics    : PQ
    Matrix coefficients         : BT.2020 non-constant
    Mastering display color pri : BT.2020
    Mastering display luminance : min: 0.0050 cd/m2, max: 1000 cd/m2
    Maximum Content Light Level : 1109 cd/m2
    Maximum Frame-Average Light : 271 cd/m2

    Audio #1
    ID                          : 2
    Format                      : AC-3
    Format/Info                 : Audio Coding 3
    Commercial name             : Dolby Digital
    Codec ID                    : A_AC3
    Duration                    : 2 h 11 min
    Bit rate mode               : Constant
    Bit rate                    : 384 kb/s
    Channel(s)                  : 6 channels
    Channel layout              : L R C LFE Ls Rs
    Sampling rate               : 48.0 kHz
    Frame rate                  : 31.250 FPS (1536 SPF)
    Compression mode            : Lossy
    Stream size                 : 360 MiB (1%)
    Title                       : Español Latino [CinemaniaHDD]
    Language                    : Spanish
    Service kind                : Complete Main
    Default                     : Yes
    Forced                      : Yes

    Audio #2
    ID                          : 3
    Format                      : E-AC-3 JOC
    Format/Info                 : Enhanced AC-3 with Joint Object Coding
    Commercial name             : Dolby Digital Plus with Dolby Atmos
    Codec ID                    : A_EAC3
    Duration                    : 2 h 11 min
    Bit rate mode               : Constant
    Bit rate                    : 768 kb/s
    Channel(s)                  : 6 channels
    Channel layout              : L R C LFE Ls Rs
    Sampling rate               : 48.0 kHz
    Frame rate                  : 31.250 FPS (1536 SPF)
    Compression mode            : Lossy
    Stream size                 : 721 MiB (3%)
    Title                       : Ingles [CinemaniaHDD]
    Language                    : English
    Service kind                : Complete Main
    Default                     : No
    Forced                      : No
    Complexity index            : 16
    Number of dynamic objects   : 15
    Bed channel count           : 1 channel
    Bed channel configuration   : LFE

    Text #1
    ID                          : 4
    Format                      : UTF-8
    Codec ID                    : S_TEXT/UTF8
    Codec ID/Info               : UTF-8 Plain Text
    Duration                    : 2 h 10 min
    Bit rate                    : 1 b/s
    Count of elements           : 42
    Stream size                 : 1.00 KiB (0%)
    Title                       : Forzados-SRT [CinemaniaHDD]
    Language                    : Spanish
    Default                     : Yes
    Forced                      : Yes

    Text #2
    ID                          : 5
    Format                      : UTF-8
    Codec ID                    : S_TEXT/UTF8
    Codec ID/Info               : UTF-8 Plain Text
    Duration                    : 2 h 10 min
    Bit rate                    : 42 b/s
    Count of elements           : 1385
    Stream size                 : 40.8 KiB (0%)
    Title                       : Español-SRT [CinemaniaHDD]
    Language                    : Spanish
    Default                     : No
    Forced                      : No

    Text #3
    ID                          : 6
    Format                      : UTF-8
    Codec ID                    : S_TEXT/UTF8
    Codec ID/Info               : UTF-8 Plain Text
    Duration                    : 2 h 5 min
    Bit rate                    : 50 b/s
    Count of elements           : 1520
    Stream size                 : 46.2 KiB (0%)
    Title                       : Ingles-SRT [CinemaniaHDD]
    Language                    : English
    Default                     : No
    Forced                      : No

    Menu
    00:00:00.000                : Chapter 01
    00:13:47.500                : Chapter 02
    00:26:30.000                : Chapter 03
    00:35:13.250                : Chapter 04
    00:44:38.750                : Chapter 05
    00:58:39.950                : Chapter 06
    01:07:16.200                : Chapter 07
    01:15:37.500                : Chapter 08
    01:26:27.350                : Chapter 09
    01:36:54.900                : Chapter 10
    01:47:10.920                : Chapter 11
    01:55:56.100                : Chapter 12
    02:07:05.000                : Chapter 13

  • Peso: 23.8 GiB

Sinopsis

Descargar Desafiantes (2024) WEB-DL 4K UHD HDR Latino. Casada con un campeón con una mala racha de derrotas, la estrategia de Tashi para la redención de su marido da un giro sorprendente cuando éste debe enfrentarse a Patrick – su antiguo mejor amigo y ex novio de Tashi. A medida que sus pasados y presentes chocan, y las tensiones se disparan, Tashi debe preguntarse a sí misma cuánto le costará ganar.

Ficha técnica

Video trailer de la película

Enlaces de descarga

Rip de Bluray

Descargar Desafiantes (2024) WEB-DL 4K UHD HDR Latino




Aportes de DPeliculasHDmega la pass es:dpeliculashdmega.org Aportes de CinemaniaHD la pass es:cinemaniahdd.com Aportes recientes:cinemaniahdd.net
Guardado en : 4K HDR , 4K UHD , Drama , Romance

Películas relacionadas

descargar Desafiantes (2024) WEB-DL 4K UHD HDR Latino WEBDL 1080p gratis, Desafiantes (2024) WEB-DL 4K UHD HDR Latino WEBDL mega 1 link, Desafiantes (2024) WEB-DL 4K UHD HDR Latino WEBDL pelicula completa, descargar Desafiantes (2024) WEB-DL 4K UHD HDR Latino WEBDL gratis en mega.

Desafiantes (2024) WEB-DL 4K UHD HDR Latino pelicula full hd, Desafiantes (2024) WEB-DL 4K UHD HDR Latino mega latino, Desafiantes (2024) WEB-DL 4K UHD HDR Latino 4k latino, Desafiantes (2024) WEB-DL 4K UHD HDR Latino pelicula completa, Desafiantes (2024) WEB-DL 4K UHD HDR Latino descargar gratis, descargar Desafiantes (2024) WEB-DL 4K UHD HDR Latino pelicula latino, Desafiantes (2024) WEB-DL 4K UHD HDR Latino 1 link mega, Desafiantes (2024) WEB-DL 4K UHD HDR Latino 1 link google drive, Desafiantes (2024) WEB-DL 4K UHD HDR Latino hd 1080p latino.
Comentarios 0