Derren Brown: Sacrifice (2018) Web-DL Latino

590 vistas
1 estrella2 estrellas3 estrellas4 estrellas5 estrellas (2 votos, promedio: 3,00 de 5)
Cargando…

Información de Derren Brown: Sacrifice (2018) Web-DL Latino

Datos de la película

  • Calidad: WEBDL
  • Audio: Español Latino AC3 5.1 Netflix - Ingles AC3 5.1 Netflix
  • Subtitulos: Español Latino SRT - Ingles SRT
  • Resolución: 1920x1080p
  • Formato: MKV
  • Codec: H.264
  • Encoder: STRIFFE
  • Mediainfo: Clic para Mostrar Datos Ver
  • Derren Brown - Sacrifice (2018) Web-DL 1080p Latino.mkv
    Format                      : Matroska
    Format version              : Version 4 / Version 2
    File size                   : 2.01 GiB
    Duration                    : 49 min 52 s
    Overall bit rate mode       : Variable
    Overall bit rate            : 5 770 kb/s
    Movie name                  : CinemaniaHDD.Net
    Encoded date                : UTC 2018-10-26 02:53:39
    Writing application         : mkvmerge v25.0.0 ('Prog Noir') 64-bit
    Writing library             : libebml v1.3.6 + libmatroska v1.4.9

    Video
    ID                          : 1
    Format                      : AVC
    Format/Info                 : Advanced Video Codec
    Format profile              : Main@L4
    Format settings             : CABAC / 3 Ref Frames
    Format settings, CABAC      : Yes
    Format settings, RefFrames  : 3 frames
    Codec ID                    : V_MPEG4/ISO/AVC
    Duration                    : 49 min 52 s
    Bit rate mode               : Variable
    Bit rate                    : 5 110 kb/s
    Maximum bit rate            : 7 665 kb/s
    Width                       : 1 920 pixels
    Height                      : 1 080 pixels
    Display aspect ratio        : 16:9
    Frame rate mode             : Constant
    Frame rate                  : 25.000 FPS
    Color space                 : YUV
    Chroma subsampling          : 4:2:0
    Bit depth                   : 8 bits
    Scan type                   : Progressive
    Bits/(Pixel*Frame)          : 0.099
    Stream size                 : 1.74 GiB (87%)
    Title                       : HD1080p [Web-DL]
    Writing library             : x264 core 148 r2715 7e75228
    Encoding settings           : cabac=1 / ref=3 / deblock=1:0:0 / analyse=0x1:0x111 / me=umh / subme=10 / psy=1 / psy_rd=1.00:0.00 / mixed_ref=1 / me_range=24 / chroma_me=1 / trellis=2 / 8x8dct=0 / cqm=0 / deadzone=21,11 / fast_pskip=1 / chroma_qp_offset=-2 / threads=8 / lookahead_threads=1 / sliced_threads=0 / nr=0 / decimate=1 / interlaced=0 / bluray_compat=0 / stitchable=1 / constrained_intra=0 / bframes=2 / b_pyramid=0 / b_adapt=2 / b_bias=0 / direct=3 / weightb=1 / open_gop=0 / weightp=2 / keyint=50 / keyint_min=26 / scenecut=0 / intra_refresh=0 / rc_lookahead=50 / rc=2pass / mbtree=1 / bitrate=5110 / ratetol=1.0 / qcomp=0.50 / qpmin=6 / qpmax=51 / qpstep=4 / cplxblur=20.0 / qblur=0.5 / vbv_maxrate=7665 / vbv_bufsize=10220 / nal_hrd=vbr / filler=0 / ip_ratio=1.40 / aq=1:1.00
    Default                     : Yes
    Forced                      : No

    Audio #1
    ID                          : 2
    Format                      : AC-3
    Format/Info                 : Audio Coding 3
    Format settings, Endianness : Big
    Codec ID                    : A_AC3
    Duration                    : 49 min 52 s
    Bit rate mode               : Constant
    Bit rate                    : 384 kb/s
    Channel(s)                  : 6 channels
    Channel positions           : Front: L C R, Side: L R, LFE
    Sampling rate               : 48.0 kHz
    Frame rate                  : 31.250 FPS (1536 SPF)
    Bit depth                   : 16 bits
    Compression mode            : Lossy
    Stream size                 : 137 MiB (7%)
    Title                       : AC3_5.1_NF_Esp
    Language                    : Spanish
    Service kind                : Complete Main
    Default                     : Yes
    Forced                      : Yes

    Audio #2
    ID                          : 3
    Format                      : AC-3
    Format/Info                 : Audio Coding 3
    Format settings, Endianness : Big
    Codec ID                    : A_AC3
    Duration                    : 49 min 52 s
    Bit rate mode               : Constant
    Bit rate                    : 384 kb/s
    Channel(s)                  : 6 channels
    Channel positions           : Front: L C R, Side: L R, LFE
    Sampling rate               : 48.0 kHz
    Frame rate                  : 31.250 FPS (1536 SPF)
    Bit depth                   : 16 bits
    Compression mode            : Lossy
    Stream size                 : 137 MiB (7%)
    Title                       : AC3_5.1_NF_Eng
    Language                    : English
    Service kind                : Complete Main
    Default                     : No
    Forced                      : No

    Text #1
    ID                          : 4
    Format                      : UTF-8
    Codec ID                    : S_TEXT/UTF8
    Codec ID/Info               : UTF-8 Plain Text
    Duration                    : 31 min 30 s
    Bit rate                    : 2 b/s
    Count of elements           : 33
    Stream size                 : 697 Bytes (0%)
    Title                       : Sub_Forzados
    Language                    : Spanish
    Default                     : Yes
    Forced                      : Yes

    Text #2
    ID                          : 5
    Format                      : UTF-8
    Codec ID                    : S_TEXT/UTF8
    Codec ID/Info               : UTF-8 Plain Text
    Duration                    : 48 min 27 s
    Bit rate                    : 90 b/s
    Count of elements           : 803
    Stream size                 : 32.0 KiB (0%)
    Title                       : Sub_Esp
    Language                    : Spanish
    Default                     : No
    Forced                      : No

    Text #3
    ID                          : 6
    Format                      : UTF-8
    Codec ID                    : S_TEXT/UTF8
    Codec ID/Info               : UTF-8 Plain Text
    Duration                    : 48 min 4 s
    Bit rate                    : 93 b/s
    Count of elements           : 796
    Stream size                 : 32.9 KiB (0%)
    Title                       : Sub_Eng
    Language                    : English
    Default                     : No
    Forced                      : No

  • Peso: 2.01 GiB

Sinopsis

Derren Brown: Sacrifice (2018) Web-DL Latino. El ilusionista Derren Brown inventa un experimento psicológico en el que trata de manipular a una persona común para que reciba una bala en lugar de un extraño.

Ficha técnica

  • Titulo original: Derren Brown: Sacrifice
  • Fecha de lanzamiento: 19-10-2018 (United States of America)
  • Género: Documental, Película de TV
  • Puntuación: 3.0 2 votos
  • Duración:
    0h 49m

Video trailer de la película

Enlaces de descarga

Rip de Bluray

Descargar Derren Brown: Sacrifice (2018) Web-DL Latino




Aportes de DPeliculasHDmega la pass es:dpeliculashdmega.org Aportes de CinemaniaHD la pass es:cinemaniahdd.com
Guardado en : Documental , Película de TV

Películas relacionadas

Comentarios 0