×

¿Problemas para descargar con Mozilla, EDGE? Deshabilita la opción "Abrir vinculos en una pestaña nueva" tal como lo muestra ésta imagen.

Demolition (2016) REMUX 1080p Latino – CMHDD

148 vistas

Información de Demolition (2016) REMUX 1080p Latino – CMHDD

Datos de la película

  • Calidad: Full 1080p
  • Audio: Español Latino AC3 5.1 BLURAY - Ingles DTS 5.1 BLURAY
  • Subtitulos: Español Latino PGS
  • Resolución: 1920x1080p
  • Formato: MKV
  • Codec: H.264
  • Encoder: Dracarys
  • Mediainfo: Clic para Mostrar Datos Ver
  • Format                      : Matroska
    Format version              : Version 4
    File size                   : 23.3 GiB
    Duration                    : 1 h 40 min
    Overall bit rate mode       : Variable
    Overall bit rate            : 33.1 Mb/s
    Movie name                  : Demolition (2016) REMUX 1080p Latino - CMHDD
    Encoded date                : UTC 2023-09-01 03:05:36
    Writing application         : mkvmerge v47.0.0 ('Black Flag') 64-bit
    Writing library             : libebml v1.3.10 + libmatroska v1.5.2
    Cover                       : Yes
    Attachments                 : cover.jpg

    Video
    ID                          : 1
    ID in the original source m : 4113 (0x1011)
    Format                      : AVC
    Format/Info                 : Advanced Video Codec
    Format profile              : High@L4.1
    Format settings             : CABAC / 2 Ref Frames
    Format settings, CABAC      : Yes
    Format settings, Reference  : 2 frames
    Codec ID                    : V_MPEG4/ISO/AVC
    Duration                    : 1 h 40 min
    Bit rate mode               : Variable
    Bit rate                    : 29.4 Mb/s
    Width                       : 1 920 pixels
    Height                      : 1 080 pixels
    Display aspect ratio        : 16:9
    Frame rate mode             : Constant
    Frame rate                  : 23.976 (24000/1001) FPS
    Color space                 : YUV
    Chroma subsampling          : 4:2:0
    Bit depth                   : 8 bits
    Scan type                   : Progressive
    Bits/(Pixel*Frame)          : 0.592
    Stream size                 : 20.7 GiB (89%)
    Default                     : Yes
    Forced                      : No
    Original source medium      : Blu-ray

    Audio #1
    ID                          : 2
    ID in the original source m : 4352 (0x1100)
    Format                      : DTS XLL
    Format/Info                 : Digital Theater Systems
    Commercial name             : DTS-HD Master Audio
    Codec ID                    : A_DTS
    Duration                    : 1 h 40 min
    Bit rate mode               : Variable
    Bit rate                    : 3 224 kb/s
    Channel(s)                  : 6 channels
    Channel layout              : C L R Ls Rs LFE
    Sampling rate               : 48.0 kHz
    Frame rate                  : 93.750 FPS (512 SPF)
    Bit depth                   : 24 bits
    Compression mode            : Lossless
    Stream size                 : 2.27 GiB (10%)
    Language                    : English
    Default                     : No
    Forced                      : No
    Original source medium      : Blu-ray

    Audio #2
    ID                          : 3
    ID in the original source m : 4353 (0x1101)
    Format                      : AC-3
    Format/Info                 : Audio Coding 3
    Commercial name             : Dolby Digital
    Codec ID                    : A_AC3
    Duration                    : 1 h 40 min
    Bit rate mode               : Constant
    Bit rate                    : 448 kb/s
    Channel(s)                  : 6 channels
    Channel layout              : L R C LFE Ls Rs
    Sampling rate               : 48.0 kHz
    Frame rate                  : 31.250 FPS (1536 SPF)
    Compression mode            : Lossy
    Stream size                 : 323 MiB (1%)
    Language                    : Spanish
    Service kind                : Complete Main
    Default                     : Yes
    Forced                      : No
    Original source medium      : Blu-ray

    Text
    ID                          : 4
    ID in the original source m : 4609 (0x1201)
    Format                      : PGS
    Muxing mode                 : zlib
    Codec ID                    : S_HDMV/PGS
    Codec ID/Info               : Picture based subtitle format used on BDs/HD-DVDs
    Duration                    : 1 h 39 min
    Bit rate                    : 29.0 kb/s
    Frame rate                  : 0.339 FPS
    Count of elements           : 2028
    Stream size                 : 20.7 MiB (0%)
    Language                    : Spanish
    Default                     : No
    Forced                      : No
    Original source medium      : Blu-ray

    Menu
    00:00:00.000                : en:Capítulo 01
    00:03:09.814                : en:Capítulo 02
    00:07:28.281                : en:Capítulo 03
    00:11:11.671                : en:Capítulo 04
    00:15:55.996                : en:Capítulo 05
    00:19:23.036                : en:Capítulo 06
    00:23:14.768                : en:Capítulo 07
    00:28:21.324                : en:Capítulo 08
    00:32:39.040                : en:Capítulo 09
    00:37:16.692                : en:Capítulo 10
    00:42:31.382                : en:Capítulo 11
    00:47:09.952                : en:Capítulo 12
    00:51:39.805                : en:Capítulo 13
    00:56:23.004                : en:Capítulo 14
    01:00:27.290                : en:Capítulo 15
    01:04:41.878                : en:Capítulo 16
    01:09:10.187                : en:Capítulo 17
    01:14:08.444                : en:Capítulo 18
    01:18:14.523                : en:Capítulo 19
    01:22:22.354                : en:Capítulo 20
    01:26:28.474                : en:Capítulo 21
    01:29:15.475                : en:Capítulo 22
    01:33:43.618                : en:Capítulo 23
    01:36:41.837                : en:Capítulo 24

  • Peso: 23.3 GiB

Sinopsis

Un exitoso banquero de inversión lucha después de perder a su esposa en un trágico accidente automovilístico. Con la ayuda de un representante de servicio al cliente y su hijo, comienza a reconstruirse a partir de la demolición de la vida que una vez conoció.

Ficha técnica

Video trailer de la película

Enlaces de descarga

Rip de Bluray

Descargar Demolition (2016) REMUX 1080p Latino – CMHDD


Aportes de DPeliculasHDmega la pass es:dpeliculashdmega.org Aportes de CinemaniaHD la pass es:cinemaniahdd.com Aportes recientes:cinemaniahdd.net
Guardado en : Comedia , Drama

Películas relacionadas

descargar Demolition (2016) REMUX 1080p Latino – CMHDD Full 1080p 1080p gratis, Demolition (2016) REMUX 1080p Latino – CMHDD Full 1080p mega 1 link, Demolition (2016) REMUX 1080p Latino – CMHDD Full 1080p pelicula completa, descargar Demolition (2016) REMUX 1080p Latino – CMHDD Full 1080p gratis en mega.

Demolition (2016) REMUX 1080p Latino – CMHDD pelicula full hd, Demolition (2016) REMUX 1080p Latino – CMHDD mega latino, Demolition (2016) REMUX 1080p Latino – CMHDD 4k latino, Demolition (2016) REMUX 1080p Latino – CMHDD pelicula completa, Demolition (2016) REMUX 1080p Latino – CMHDD descargar gratis, descargar Demolition (2016) REMUX 1080p Latino – CMHDD pelicula latino, Demolition (2016) REMUX 1080p Latino – CMHDD 1 link mega, Demolition (2016) REMUX 1080p Latino – CMHDD 1 link google drive, Demolition (2016) REMUX 1080p Latino – CMHDD hd 1080p latino.
Comentarios 0