×

¿Problemas para descargar con Mozilla, EDGE? Deshabilita la opción "Abrir vinculos en una pestaña nueva" tal como lo muestra ésta imagen.

Deliverance (1972) REMUX 1080p Latino – CMHDD

212 vistas

Información de Deliverance (1972) REMUX 1080p Latino – CMHDD

Datos de la película

  • Calidad: Full 1080p
  • Audio: Español Latino AC3 2.0 BLURAY - Ingles DTS 5.1 BLURAY
  • Subtitulos: Español Latino PGS
  • Resolución: 1920x1080p
  • Formato: MKV
  • Codec: H.264
  • Encoder: Dracarys
  • Mediainfo: Clic para Mostrar Datos Ver
  • Format                      : Matroska
    Format version              : Version 4
    File size                   : 18.8 GiB
    Duration                    : 1 h 49 min
    Overall bit rate mode       : Variable
    Overall bit rate            : 24.7 Mb/s
    Movie name                  : Deliverance (1972) REMUX 1080p Latino - CMHDD
    Encoded date                : UTC 2021-07-07 19:38:25
    Writing application         : mkvmerge v56.1.0 ('My Friend') 64-bit
    Writing library             : libebml v1.4.2 + libmatroska v1.6.4
    Cover                       : Yes
    Attachments                 : cover.jpg

    Video
    ID                          : 1
    ID in the original source m : 4113 (0x1011)
    Format                      : VC-1
    Format profile              : Advanced@L3
    Codec ID                    : V_MS/VFW/FOURCC / WVC1
    Codec ID/Hint               : Microsoft
    Duration                    : 1 h 49 min
    Bit rate                    : 21.1 Mb/s
    Width                       : 1 920 pixels
    Height                      : 1 080 pixels
    Display aspect ratio        : 16:9
    Frame rate mode             : Constant
    Frame rate                  : 23.976 (24000/1001) FPS
    Color space                 : YUV
    Chroma subsampling          : 4:2:0
    Bit depth                   : 8 bits
    Scan type                   : Progressive
    Compression mode            : Lossy
    Bits/(Pixel*Frame)          : 0.425
    Stream size                 : 16.1 GiB (86%)
    Default                     : Yes
    Forced                      : No
    Original source medium      : Blu-ray

    Audio #1
    ID                          : 2
    ID in the original source m : 4352 (0x1100)
    Format                      : DTS XLL
    Format/Info                 : Digital Theater Systems
    Commercial name             : DTS-HD Master Audio
    Codec ID                    : A_DTS
    Duration                    : 1 h 49 min
    Bit rate mode               : Variable
    Bit rate                    : 3 360 kb/s
    Channel(s)                  : 6 channels
    Channel layout              : C L R Ls Rs LFE
    Sampling rate               : 48.0 kHz
    Frame rate                  : 93.750 FPS (512 SPF)
    Bit depth                   : 24 bits
    Compression mode            : Lossless
    Stream size                 : 2.56 GiB (14%)
    Language                    : English
    Default                     : No
    Forced                      : No
    Original source medium      : Blu-ray

    Audio #2
    ID                          : 3
    ID in the original source m : 4357 (0x1105)
    Format                      : AC-3
    Format/Info                 : Audio Coding 3
    Commercial name             : Dolby Digital
    Codec ID                    : A_AC3
    Duration                    : 1 h 49 min
    Bit rate mode               : Constant
    Bit rate                    : 192 kb/s
    Channel(s)                  : 2 channels
    Channel layout              : L R
    Sampling rate               : 48.0 kHz
    Frame rate                  : 31.250 FPS (1536 SPF)
    Compression mode            : Lossy
    Stream size                 : 150 MiB (1%)
    Language                    : Spanish
    Service kind                : Complete Main
    Default                     : Yes
    Forced                      : No
    Original source medium      : Blu-ray

    Text
    ID                          : 4
    ID in the original source m : 4617 (0x1209)
    Format                      : PGS
    Muxing mode                 : zlib
    Codec ID                    : S_HDMV/PGS
    Codec ID/Info               : Picture based subtitle format used on BDs/HD-DVDs
    Duration                    : 1 h 48 min
    Bit rate                    : 17.3 kb/s
    Count of elements           : 1852
    Stream size                 : 13.5 MiB (0%)
    Language                    : Spanish
    Default                     : No
    Forced                      : No
    Original source medium      : Blu-ray

    Menu
    00:00:00.000                : Chapter 01
    00:02:53.423                : Chapter 02
    00:05:31.164                : Chapter 03
    00:09:43.124                : Chapter 04
    00:13:22.009                : Chapter 05
    00:17:16.744                : Chapter 06
    00:20:05.537                : Chapter 07
    00:21:22.322                : Chapter 08
    00:25:49.214                : Chapter 09
    00:27:45.747                : Chapter 10
    00:32:25.610                : Chapter 11
    00:36:22.054                : Chapter 12
    00:41:51.050                : Chapter 13
    00:46:20.027                : Chapter 14
    00:49:55.701                : Chapter 15
    00:56:44.150                : Chapter 16
    01:00:09.022                : Chapter 17
    01:04:22.942                : Chapter 18
    01:09:21.574                : Chapter 19
    01:14:00.436                : Chapter 20
    01:17:44.576                : Chapter 21
    01:22:37.661                : Chapter 22
    01:24:53.588                : Chapter 23
    01:27:04.260                : Chapter 24
    01:29:01.210                : Chapter 25
    01:30:46.858                : Chapter 26
    01:37:10.074                : Chapter 27
    01:40:38.615                : Chapter 28
    01:42:46.910                : Chapter 29
    01:46:09.112                : Chapter 30

  • Peso: 18.8 GiB

Sinopsis

Cuatro amigos que viven en la ciudad deciden pasar un fin de semana en los Montes Apalaches. Quieren bajar en canoa un río que atraviesa un bosque que pronto será inundado para la construcción de una presa. Tras una jornada placentera, el encuentro con los indígenas de la zona, convierte la excursión en una angustiosa pesadilla.

Ficha técnica

Video trailer de la película

Enlaces de descarga

Rip de Bluray

Descargar Deliverance (1972) REMUX 1080p Latino – CMHDD


Aportes de DPeliculasHDmega la pass es:dpeliculashdmega.org Aportes de CinemaniaHD la pass es:cinemaniahdd.com
Guardado en : Aventura , Drama , Suspenso

Películas relacionadas

descargar Deliverance (1972) REMUX 1080p Latino – CMHDD Full 1080p 1080p gratis, Deliverance (1972) REMUX 1080p Latino – CMHDD Full 1080p mega 1 link, Deliverance (1972) REMUX 1080p Latino – CMHDD Full 1080p pelicula completa, descargar Deliverance (1972) REMUX 1080p Latino – CMHDD Full 1080p gratis en mega.

Deliverance (1972) REMUX 1080p Latino – CMHDD pelicula full hd, Deliverance (1972) REMUX 1080p Latino – CMHDD mega latino, Deliverance (1972) REMUX 1080p Latino – CMHDD 4k latino, Deliverance (1972) REMUX 1080p Latino – CMHDD pelicula completa, Deliverance (1972) REMUX 1080p Latino – CMHDD descargar gratis, descargar Deliverance (1972) REMUX 1080p Latino – CMHDD pelicula latino, Deliverance (1972) REMUX 1080p Latino – CMHDD 1 link mega, Deliverance (1972) REMUX 1080p Latino – CMHDD 1 link google drive, Deliverance (1972) REMUX 1080p Latino – CMHDD hd 1080p latino.
Comentarios 0