×

¿Problemas para descargar con Mozilla, EDGE? Deshabilita la opción "Abrir vinculos en una pestaña nueva" tal como lo muestra ésta imagen.

Deliver Us From Evil (2014) REMUX 1080p 1080p Latino – CMHDD

197 vistas

Información de Deliver Us From Evil (2014) REMUX 1080p 1080p Latino – CMHDD

Datos de la película

  • Calidad: Full 1080p
  • Audio: Español Latino AC3 5.1 BLURAY - Ingles DTS 5.1 BLURAY
  • Subtitulos: Español Latino PGS
  • Resolución: 1920x1080p
  • Formato: MKV
  • Codec: H.264
  • Encoder: Dracarys
  • Mediainfo: Clic para Mostrar Datos Ver
  • Format                      : Matroska
    Format version              : Version 4
    File size                   : 23.6 GiB
    Duration                    : 1 h 58 min
    Overall bit rate mode       : Variable
    Overall bit rate            : 28.5 Mb/s
    Movie name                  : Deliver Us From Evil (2014) REMUX 1080p 1080p Latino - CMHDD
    Encoded date                : UTC 2021-09-01 05:18:49
    Writing application         : mkvmerge v17.0.0 ('Be Ur Friend') 64-bit
    Writing library             : libebml v1.3.5 + libmatroska v1.4.8

    Video
    ID                          : 1
    Format                      : AVC
    Format/Info                 : Advanced Video Codec
    Format profile              : High@L4.1
    Format settings             : CABAC / 2 Ref Frames
    Format settings, CABAC      : Yes
    Format settings, Reference  : 2 frames
    Format settings, GOP        : M=1, N=10
    Codec ID                    : V_MPEG4/ISO/AVC
    Duration                    : 1 h 58 min
    Bit rate mode               : Variable
    Bit rate                    : 24.9 Mb/s
    Width                       : 1 920 pixels
    Height                      : 1 080 pixels
    Display aspect ratio        : 16:9
    Frame rate mode             : Constant
    Frame rate                  : 23.976 (24000/1001) FPS
    Color space                 : YUV
    Chroma subsampling          : 4:2:0
    Bit depth                   : 8 bits
    Scan type                   : Progressive
    Bits/(Pixel*Frame)          : 0.502
    Stream size                 : 20.6 GiB (88%)
    Default                     : Yes
    Forced                      : No

    Audio #1
    ID                          : 2
    Format                      : DTS XLL
    Format/Info                 : Digital Theater Systems
    Commercial name             : DTS-HD Master Audio
    Codec ID                    : A_DTS
    Duration                    : 1 h 58 min
    Bit rate mode               : Variable
    Bit rate                    : 2 255 kb/s
    Channel(s)                  : 6 channels
    Channel layout              : C L R Ls Rs LFE
    Sampling rate               : 48.0 kHz
    Frame rate                  : 93.750 FPS (512 SPF)
    Bit depth                   : 16 bits
    Compression mode            : Lossless
    Stream size                 : 1.87 GiB (8%)
    Language                    : English
    Default                     : No
    Forced                      : No

    Audio #2
    ID                          : 3
    Format                      : AC-3
    Format/Info                 : Audio Coding 3
    Commercial name             : Dolby Digital
    Codec ID                    : A_AC3
    Duration                    : 1 h 58 min
    Bit rate mode               : Constant
    Bit rate                    : 640 kb/s
    Channel(s)                  : 6 channels
    Channel layout              : L R C LFE Ls Rs
    Sampling rate               : 48.0 kHz
    Frame rate                  : 31.250 FPS (1536 SPF)
    Compression mode            : Lossy
    Stream size                 : 542 MiB (2%)
    Language                    : English
    Service kind                : Complete Main
    Default                     : No
    Forced                      : No

    Audio #3
    ID                          : 4
    Format                      : AC-3
    Format/Info                 : Audio Coding 3
    Commercial name             : Dolby Digital
    Codec ID                    : A_AC3
    Duration                    : 1 h 58 min
    Bit rate mode               : Constant
    Bit rate                    : 640 kb/s
    Channel(s)                  : 6 channels
    Channel layout              : L R C LFE Ls Rs
    Sampling rate               : 48.0 kHz
    Frame rate                  : 31.250 FPS (1536 SPF)
    Compression mode            : Lossy
    Stream size                 : 542 MiB (2%)
    Language                    : Spanish
    Service kind                : Complete Main
    Default                     : Yes
    Forced                      : No

    Text
    ID                          : 5
    Format                      : PGS
    Muxing mode                 : zlib
    Codec ID                    : S_HDMV/PGS
    Codec ID/Info               : Picture based subtitle format used on BDs/HD-DVDs
    Duration                    : 1 h 57 min
    Bit rate                    : 22.1 kb/s
    Count of elements           : 2378
    Stream size                 : 18.6 MiB (0%)
    Language                    : Spanish
    Default                     : No
    Forced                      : No

    Menu
    00:00:00.000                : en:Chapter 1
    00:04:54.877                : en:Chapter 2
    00:11:12.213                : en:Chapter 3
    00:17:51.070                : en:Chapter 4
    00:29:42.363                : en:Chapter 5
    00:36:24.724                : en:Chapter 6
    00:43:08.836                : en:Chapter 7
    00:49:09.863                : en:Chapter 8
    00:57:52.594                : en:Chapter 9
    01:06:12.218                : en:Chapter 10
    01:12:45.611                : en:Chapter 11
    01:19:45.071                : en:Chapter 12
    01:30:14.742                : en:Chapter 13
    01:36:53.724                : en:Chapter 14
    01:41:59.446                : en:Chapter 15
    01:48:39.221                : en:Chapter 16

  • Peso: 23.6 GiB

Sinopsis

Ralph Sarchie (Eric Bana) es un agente de policía de Nueva York que se dedica a investigar una serie de asesinatos que parecen tener relación con posesiones demoníacas. Sus pesquisas lo llevarán a aliarse con un sacerdote muy poco convencional (Edgar Ramírez), experto en exorcismos.

Ficha técnica

Video trailer de la película

Enlaces de descarga

Rip de Bluray

Descargar Deliver Us From Evil (2014) REMUX 1080p 1080p Latino – CMHDD


Aportes de DPeliculasHDmega la pass es:dpeliculashdmega.org Aportes de CinemaniaHD la pass es:cinemaniahdd.com
Guardado en : Crimen , Suspenso , Terror

Películas relacionadas

  • Tren Bala (2022) WEB-DL 4K UHD HDR Latino

    Tren Bala (2022) WEB-DL 4K UHD HDR Latino

    2022
    Tren Bala (2022) WEB-DL 4K UHD HDR Latino

    2h 7m 2022

    Descargar Tren Bala (2022) WEB-DL 4K UHD HDR Latino. El desafortunado asesino "Catarina" está decidido...

    Director: Paul Barry

    Género: 4K HDR

    Actores: Zooey Miyoshi

  • Tren Bala (2022) AMZN WEB-DL 1080p Latino

    Tren Bala (2022) AMZN WEB-DL 1080p Latino

    2022
    Tren Bala (2022) AMZN WEB-DL 1080p Latino

    2h 7m 2022

    Descargar Tren Bala (2022) AMZN WEB-DL 1080p Latino. Cinco asesinos a sueldo se encuentran a bordo de...

    Director: Paul Barry

    Género: Acción

    Actores: Zooey Miyoshi

  • Poltergeist (1982) REMUX 1080p Latino – CMHDD

    Poltergeist (1982) REMUX 1080p Latino – CMHDD

    1982
    Poltergeist (1982) REMUX 1080p Latino – CMHDD

    1h 54m 1982

    Una familia americana de clase media se traslada a vivir e una nueva casa en un aparentemente idílico...

    Director: Tobe Hooper

    Género: Terror

    Actores: Zelda Rubinstein

  • Poltergeist (1982) REMUX 4K Latino – CMHDD

    Poltergeist (1982) REMUX 4K Latino – CMHDD

    1982
    Poltergeist (1982) REMUX 4K Latino – CMHDD

    1h 54m 1982

    Una familia americana de clase media se traslada a vivir e una nueva casa en un aparentemente idílico...

    Director: Tobe Hooper

    Género: Terror

    Actores: Zelda Rubinstein

  • Athena (2022) NF WEB-DL 1080p Latino

    Athena (2022) NF WEB-DL 1080p Latino

    2022
    Athena (2022) NF WEB-DL 1080p Latino

    1h 37m 2022

    Descargar Athena (2022) NF WEB-DL 1080p Latino. Horas después de la trágica muerte de su hermano menor...

    Director: Romain Gavras

    Género: Acción

    Actores: Tarek Haddaji

descargar Deliver Us From Evil (2014) REMUX 1080p 1080p Latino – CMHDD Full 1080p 1080p gratis, Deliver Us From Evil (2014) REMUX 1080p 1080p Latino – CMHDD Full 1080p mega 1 link, Deliver Us From Evil (2014) REMUX 1080p 1080p Latino – CMHDD Full 1080p pelicula completa, descargar Deliver Us From Evil (2014) REMUX 1080p 1080p Latino – CMHDD Full 1080p gratis en mega.

Deliver Us From Evil (2014) REMUX 1080p 1080p Latino – CMHDD pelicula full hd, Deliver Us From Evil (2014) REMUX 1080p 1080p Latino – CMHDD mega latino, Deliver Us From Evil (2014) REMUX 1080p 1080p Latino – CMHDD 4k latino, Deliver Us From Evil (2014) REMUX 1080p 1080p Latino – CMHDD pelicula completa, Deliver Us From Evil (2014) REMUX 1080p 1080p Latino – CMHDD descargar gratis, descargar Deliver Us From Evil (2014) REMUX 1080p 1080p Latino – CMHDD pelicula latino, Deliver Us From Evil (2014) REMUX 1080p 1080p Latino – CMHDD 1 link mega, Deliver Us From Evil (2014) REMUX 1080p 1080p Latino – CMHDD 1 link google drive, Deliver Us From Evil (2014) REMUX 1080p 1080p Latino – CMHDD hd 1080p latino.
Comentarios 0