×

¿Problemas para descargar con Mozilla, EDGE? Deshabilita la opción "Abrir vinculos en una pestaña nueva" tal como lo muestra ésta imagen.

Déjà Vu (2006) REMUX 1080p Latino

380 vistas

Información de Déjà Vu (2006) REMUX 1080p Latino

Datos de la película

  • Calidad: Full 1080p
  • Audio: Español Latino AC3 5.1 BLURAY - Ingles DTS 5.1 BLURAY
  • Subtitulos: Español Latino PGS - Ingles PGS
  • Resolución: 1920x1080p
  • Formato: MKV
  • Codec: H.264
  • Encoder: CinefiloCool
  • Mediainfo: Clic para Mostrar Datos Ver
  • Deja Vu (2006) REMUX 1080p Latino-CMHDD.mkv
    Format                      : Matroska
    Format version              : Version 4
    File size                   : 23.0 GiB
    Duration                    : 2 h 6 min
    Overall bit rate mode       : Variable
    Overall bit rate            : 26.0 Mb/s
    Movie name                  : Deja Vu (2006) CinemaniaHDD.Net
    Encoded date                : UTC 2021-01-01 05:25:42
    Writing application         : mkvmerge v51.0.0 ('I Wish') 64-bit
    Writing library             : libebml v1.4.0 + libmatroska v1.6.2
    Attachments                 : CINEMANIAHD.png

    Video
    ID                          : 1
    Format                      : VC-1
    Format profile              : Advanced@L3
    Codec ID                    : V_MS/VFW/FOURCC / WVC1
    Codec ID/Hint               : Microsoft
    Duration                    : 2 h 6 min
    Bit rate                    : 23.2 Mb/s
    Width                       : 1 920 pixels
    Height                      : 1 080 pixels
    Display aspect ratio        : 16:9
    Frame rate mode             : Constant
    Frame rate                  : 23.976 (24000/1001) FPS
    Color space                 : YUV
    Chroma subsampling          : 4:2:0
    Bit depth                   : 8 bits
    Scan type                   : Progressive
    Compression mode            : Lossy
    Bits/(Pixel*Frame)          : 0.466
    Stream size                 : 20.5 GiB (89%)
    Title                       : REMUX HD1080p [CinemaniaHDD]
    Default                     : Yes
    Forced                      : No

    Audio #1
    ID                          : 2
    Format                      : AC-3
    Format/Info                 : Audio Coding 3
    Commercial name             : Dolby Digital
    Codec ID                    : A_AC3
    Duration                    : 2 h 6 min
    Bit rate mode               : Constant
    Bit rate                    : 640 kb/s
    Channel(s)                  : 6 channels
    Channel layout              : L R C LFE Ls Rs
    Sampling rate               : 48.0 kHz
    Frame rate                  : 31.250 FPS (1536 SPF)
    Compression mode            : Lossy
    Stream size                 : 579 MiB (2%)
    Title                       : Español Latino [CinemaniaHDD]
    Language                    : Spanish
    Service kind                : Complete Main
    Default                     : Yes
    Forced                      : No

    Audio #2
    ID                          : 3
    Format                      : DTS XLL
    Format/Info                 : Digital Theater Systems
    Commercial name             : DTS-HD Master Audio
    Codec ID                    : A_DTS
    Duration                    : 2 h 6 min
    Bit rate mode               : Variable
    Bit rate                    : 2 224 kb/s
    Channel(s)                  : 6 channels
    Channel layout              : C L R Ls Rs LFE
    Sampling rate               : 48.0 kHz
    Frame rate                  : 93.750 FPS (512 SPF)
    Bit depth                   : 16 bits
    Compression mode            : Lossless
    Stream size                 : 1.97 GiB (9%)
    Title                       : Ingles [CinemaniaHDD]
    Language                    : English
    Default                     : No
    Forced                      : No

    Text #1
    ID                          : 4
    Format                      : PGS
    Muxing mode                 : zlib
    Codec ID                    : S_HDMV/PGS
    Codec ID/Info               : Picture based subtitle format used on BDs/HD-DVDs
    Duration                    : 1 h 57 min
    Bit rate                    : 921 b/s
    Count of elements           : 80
    Stream size                 : 791 KiB (0%)
    Title                       : Forzados-PGS [CinemaniaHDD]
    Language                    : Spanish
    Default                     : Yes
    Forced                      : No

    Text #2
    ID                          : 5
    Format                      : PGS
    Muxing mode                 : zlib
    Codec ID                    : S_HDMV/PGS
    Codec ID/Info               : Picture based subtitle format used on BDs/HD-DVDs
    Duration                    : 1 h 57 min
    Bit rate                    : 34.8 kb/s
    Count of elements           : 3137
    Stream size                 : 29.2 MiB (0%)
    Title                       : Español-PGS [CinemaniaHDD]
    Language                    : Spanish
    Default                     : No
    Forced                      : No

    Text #3
    ID                          : 6
    Format                      : PGS
    Muxing mode                 : zlib
    Codec ID                    : S_HDMV/PGS
    Codec ID/Info               : Picture based subtitle format used on BDs/HD-DVDs
    Duration                    : 1 h 55 min
    Bit rate                    : 37.4 kb/s
    Count of elements           : 3053
    Stream size                 : 30.9 MiB (0%)
    Title                       : Ingles-PGS [CinemaniaHDD]
    Language                    : English
    Default                     : No
    Forced                      : No

    Text #4
    ID                          : 7
    Format                      : UTF-8
    Codec ID                    : S_TEXT/UTF8
    Codec ID/Info               : UTF-8 Plain Text
    Duration                    : 1 h 57 min
    Bit rate                    : 1 b/s
    Count of elements           : 40
    Stream size                 : 1.20 KiB (0%)
    Title                       : Forzados-SRT [CinemaniaHDD]
    Language                    : Spanish
    Default                     : No
    Forced                      : No

    Text #5
    ID                          : 8
    Format                      : UTF-8
    Codec ID                    : S_TEXT/UTF8
    Codec ID/Info               : UTF-8 Plain Text
    Duration                    : 1 h 57 min
    Bit rate                    : 65 b/s
    Count of elements           : 1563
    Stream size                 : 56.3 KiB (0%)
    Title                       : Español-SRT [CinemaniaHDD]
    Language                    : Spanish
    Default                     : No
    Forced                      : No

    Menu
    00:00:00.000                : en:Act of Terrorism
    00:06:20.755                : en:A Crime Investigation
    00:15:32.682                : en:Claire Kachever
    00:24:59.206                : en:Unique Time Constraints
    00:30:20.235                : en:Snow White
    00:38:37.357                : en:Who's Watching Her?
    00:42:57.992                : en:That's Him
    00:49:30.384                : en:Something Breached the Field
    00:55:52.391                : en:Branching the Universe
    00:59:57.385                : en:Out of Range
    01:14:15.618                : en:Motive
    01:20:38.000                : en:Four Days Ago
    01:29:00.418                : en:They'd Never Believe You
    01:42:49.371                : en:Change of Plans
    01:54:41.416                : en:Have We Met?
    01:58:06.621                : en:End Credits

  • Peso: 23.0 GiB

Sinopsis

Descargar Déjà Vu (2006) REMUX 1080p Latino. Tras una terrible explosión de una bomba en un Ferry de Nueva Orleans, el agente Doug Carlin descubre que es obra de un terrorista. Por su perspicacia para analizar y distinguir rápidamente lo relevante de lo secundario en el escenario del crimen, Carlin es asignado a un misterioso nuevo equipo de investigación que utiliza una sofisticada máquina que permite algo extraordinario…

Ficha técnica

Video trailer de la película

Enlaces de descarga

Rip de Bluray

Descargar Déjà Vu (2006) REMUX 1080p Latino




Aportes de DPeliculasHDmega la pass es:dpeliculashdmega.org Aportes de CinemaniaHD la pass es:cinemaniahdd.com
Guardado en : Acción , Ciencia ficción , Remux , Suspenso

Películas relacionadas

  • Los Tres Mosqueteros (1993) REMUX 1080p Latino

    Los Tres Mosqueteros (1993) REMUX 1080p Latino

    1993
    Los Tres Mosqueteros (1993) REMUX 1080p Latino

    1h 45m 1993

    Descargar Los Tres Mosqueteros (1993) REMUX 1080p Latino. Un habilidoso espadachín de provincias, D´Artagnan,...

    Director: Stephen Herek

    Género: Acción

    Actores: Tim Curry

  • Sublime (2007) REMUX 1080p SUB

    Sublime (2007) REMUX 1080p SUB

    2007
    Sublime (2007) REMUX 1080p SUB

    1h 53m 2007

    Descargar Sublime (2007) REMUX 1080p SUB. George Grieves ingresa en el hospital de Mt Abbadon para hacerse...

    Director: Tony Krantz

    Género: Remux

    Actores: Tom Cavanagh

  • Jamaica bajo cero (1993) REMUX 1080p Latino

    Jamaica bajo cero (1993) REMUX 1080p Latino

    1993
    Jamaica bajo cero (1993) REMUX 1080p Latino

    1h 38m 1993

    Descargar Jamaica bajo cero (1993) REMUX 1080p Latino. Derice, Sanka, Junio Bevil y Yul son cuatro atletas...

    Director: Michael D. Moore

    Género: Aventura

    Actores: Winston Stona

descargar Déjà Vu (2006) REMUX 1080p Latino Full 1080p 1080p gratis, Déjà Vu (2006) REMUX 1080p Latino Full 1080p mega 1 link, Déjà Vu (2006) REMUX 1080p Latino Full 1080p pelicula completa, descargar Déjà Vu (2006) REMUX 1080p Latino Full 1080p gratis en mega.

Déjà Vu (2006) REMUX 1080p Latino pelicula full hd, Déjà Vu (2006) REMUX 1080p Latino mega latino, Déjà Vu (2006) REMUX 1080p Latino 4k latino, Déjà Vu (2006) REMUX 1080p Latino pelicula completa, Déjà Vu (2006) REMUX 1080p Latino descargar gratis, descargar Déjà Vu (2006) REMUX 1080p Latino pelicula latino, Déjà Vu (2006) REMUX 1080p Latino 1 link mega, Déjà Vu (2006) REMUX 1080p Latino 1 link google drive, Déjà Vu (2006) REMUX 1080p Latino hd 1080p latino.
Comentarios 0