×

¿Problemas para descargar con Mozilla, EDGE? Deshabilita la opción "Abrir vinculos en una pestaña nueva" tal como lo muestra ésta imagen.

Déjà Vu (2006) 1080p Latino

282 vistas

Información de Déjà Vu (2006) 1080p Latino

Datos de la película

  • Calidad: 1080p
  • Audio: Español Latino AC3 5.1 BLURAY - Ingles AC3 5.1 BLURAY
  • Subtitulos: Español Latino SRT - Ingles SRT
  • Resolución: 1920x800p
  • Formato: MKV
  • Codec: H.264
  • Encoder: CinefiloCool
  • Mediainfo: Clic para Mostrar Datos Ver
  • Deja Vu (2006) 1080p Latino-CMHDD.mkv
    Format                      : Matroska
    Format version              : Version 4
    File size                   : 4.05 GiB
    Duration                    : 2 h 6 min
    Overall bit rate            : 4 579 kb/s
    Movie name                  : Deja Vu (2006) CinemaniaHDD.Net
    Encoded date                : UTC 2021-01-15 03:32:59
    Writing application         : mkvmerge v51.0.0 ('I Wish') 64-bit
    Writing library             : libebml v1.4.0 + libmatroska v1.6.2
    Attachments                 : CINEMANIAHD.png

    Video
    ID                          : 1
    Format                      : AVC
    Format/Info                 : Advanced Video Codec
    Format profile              : High@L4.1
    Format settings             : CABAC / 5 Ref Frames
    Format settings, CABAC      : Yes
    Format settings, Reference  : 5 frames
    Codec ID                    : V_MPEG4/ISO/AVC
    Duration                    : 2 h 6 min
    Bit rate                    : 3 500 kb/s
    Width                       : 1 920 pixels
    Height                      : 800 pixels
    Display aspect ratio        : 2.40:1
    Frame rate mode             : Constant
    Frame rate                  : 23.976 (24000/1001) FPS
    Color space                 : YUV
    Chroma subsampling          : 4:2:0
    Bit depth                   : 8 bits
    Scan type                   : Progressive
    Bits/(Pixel*Frame)          : 0.095
    Stream size                 : 3.09 GiB (76%)
    Title                       : HD1080p [CinemaniaHDD]
    Writing library             : x264 core 157 r2935 545de2f
    Encoding settings           : cabac=1 / ref=5 / deblock=1:-1:-1 / analyse=0x3:0x133 / me=umh / subme=9 / psy=1 / psy_rd=1.00:0.15 / mixed_ref=1 / me_range=16 / chroma_me=1 / trellis=2 / 8x8dct=1 / cqm=0 / deadzone=21,11 / fast_pskip=1 / chroma_qp_offset=-3 / threads=24 / lookahead_threads=2 / sliced_threads=0 / nr=0 / decimate=1 / interlaced=0 / bluray_compat=0 / constrained_intra=0 / bframes=3 / b_pyramid=2 / b_adapt=2 / b_bias=0 / direct=3 / weightb=1 / open_gop=0 / weightp=2 / keyint=240 / keyint_min=24 / scenecut=40 / intra_refresh=0 / rc_lookahead=60 / rc=2pass / mbtree=1 / bitrate=3500 / ratetol=1.0 / qcomp=0.60 / qpmin=0 / qpmax=69 / qpstep=4 / cplxblur=20.0 / qblur=0.5 / vbv_maxrate=62500 / vbv_bufsize=78125 / nal_hrd=none / filler=0 / ip_ratio=1.40 / aq=1:1.00
    Default                     : Yes
    Forced                      : No
    Color range                 : Limited
    Color primaries             : BT.709
    Transfer characteristics    : BT.709
    Matrix coefficients         : BT.709

    Audio #1
    ID                          : 2
    Format                      : AC-3
    Format/Info                 : Audio Coding 3
    Commercial name             : Dolby Digital
    Codec ID                    : A_AC3
    Duration                    : 2 h 6 min
    Bit rate mode               : Constant
    Bit rate                    : 640 kb/s
    Channel(s)                  : 6 channels
    Channel layout              : L R C LFE Ls Rs
    Sampling rate               : 48.0 kHz
    Frame rate                  : 31.250 FPS (1536 SPF)
    Compression mode            : Lossy
    Delay relative to video     : -5 ms
    Stream size                 : 579 MiB (14%)
    Title                       : Español Latino [CinemaniaHDD]
    Language                    : Spanish
    Service kind                : Complete Main
    Default                     : Yes
    Forced                      : No

    Audio #2
    ID                          : 3
    Format                      : AC-3
    Format/Info                 : Audio Coding 3
    Commercial name             : Dolby Digital
    Codec ID                    : A_AC3
    Duration                    : 2 h 6 min
    Bit rate mode               : Constant
    Bit rate                    : 448 kb/s
    Channel(s)                  : 6 channels
    Channel layout              : L R C LFE Ls Rs
    Sampling rate               : 48.0 kHz
    Frame rate                  : 31.250 FPS (1536 SPF)
    Compression mode            : Lossy
    Delay relative to video     : -5 ms
    Stream size                 : 406 MiB (10%)
    Title                       : Ingles [CinemaniaHDD]
    Language                    : English
    Service kind                : Complete Main
    Default                     : No
    Forced                      : No

    Text #1
    ID                          : 4
    Format                      : UTF-8
    Codec ID                    : S_TEXT/UTF8
    Codec ID/Info               : UTF-8 Plain Text
    Duration                    : 1 h 57 min
    Bit rate                    : 1 b/s
    Count of elements           : 40
    Stream size                 : 1.20 KiB (0%)
    Title                       : Forzados-SRT [CinemaniaHDD]
    Language                    : Spanish
    Default                     : Yes
    Forced                      : No

    Text #2
    ID                          : 5
    Format                      : UTF-8
    Codec ID                    : S_TEXT/UTF8
    Codec ID/Info               : UTF-8 Plain Text
    Duration                    : 1 h 57 min
    Bit rate                    : 65 b/s
    Count of elements           : 1563
    Stream size                 : 56.3 KiB (0%)
    Title                       : Español-SRT [CinemaniaHDD]
    Language                    : Spanish
    Default                     : No
    Forced                      : No

    Text #3
    ID                          : 6
    Format                      : UTF-8
    Codec ID                    : S_TEXT/UTF8
    Codec ID/Info               : UTF-8 Plain Text
    Duration                    : 1 h 59 min
    Bit rate                    : 70 b/s
    Count of elements           : 1776
    Stream size                 : 61.3 KiB (0%)
    Title                       : Ingles-SRT [CinemaniaHDD]
    Language                    : English
    Default                     : No
    Forced                      : No

    Menu
    00:00:00.000                : en:Act of Terrorism
    00:06:20.755                : en:A Crime Investigation
    00:15:32.682                : en:Claire Kachever
    00:24:59.206                : en:Unique Time Constraints
    00:30:20.235                : en:Snow White
    00:38:37.357                : en:Who's Watching Her?
    00:42:57.992                : en:That's Him
    00:49:30.384                : en:Something Breached the Field
    00:55:52.391                : en:Branching the Universe
    00:59:57.385                : en:Out of Range
    01:14:15.618                : en:Motive
    01:20:38.000                : en:Four Days Ago
    01:29:00.418                : en:They'd Never Believe You
    01:42:49.371                : en:Change of Plans
    01:54:41.416                : en:Have We Met?
    01:58:06.621                : en:End Credits

  • Peso: 4.05 GiB

Sinopsis

Descargar Déjà Vu (2006) 1080p Latino. Tras una terrible explosión de una bomba en un Ferry de Nueva Orleans, el agente Doug Carlin descubre que es obra de un terrorista. Por su perspicacia para analizar y distinguir rápidamente lo relevante de lo secundario en el escenario del crimen, Carlin es asignado a un misterioso nuevo equipo de investigación que utiliza una sofisticada máquina que permite algo extraordinario…

Ficha técnica

Video trailer de la película

Enlaces de descarga

Rip de Bluray

Descargar Déjà Vu (2006) 1080p Latino




Aportes de DPeliculasHDmega la pass es:dpeliculashdmega.org Aportes de CinemaniaHD la pass es:cinemaniahdd.com

Películas relacionadas

descargar Déjà Vu (2006) 1080p Latino 1080p 1080p gratis, Déjà Vu (2006) 1080p Latino 1080p mega 1 link, Déjà Vu (2006) 1080p Latino 1080p pelicula completa, descargar Déjà Vu (2006) 1080p Latino 1080p gratis en mega.

Déjà Vu (2006) 1080p Latino pelicula full hd, Déjà Vu (2006) 1080p Latino mega latino, Déjà Vu (2006) 1080p Latino 4k latino, Déjà Vu (2006) 1080p Latino pelicula completa, Déjà Vu (2006) 1080p Latino descargar gratis, descargar Déjà Vu (2006) 1080p Latino pelicula latino, Déjà Vu (2006) 1080p Latino 1 link mega, Déjà Vu (2006) 1080p Latino 1 link google drive, Déjà Vu (2006) 1080p Latino hd 1080p latino.
Comentarios 0