Déjà Vu (2006) Full HD 1080p Latino

62 vistas
1 estrella2 estrellas3 estrellas4 estrellas5 estrellas (1 votos, promedio: 5,00 de 5)
Cargando...

Información de Déjà Vu (2006) Full HD 1080p Latino

Datos de la película

  • Calidad: Full 1080p
  • Audio: Español Latino AC3 5.1 BLURAY - Ingles DTS 5.1 BLURAY
  • Subtitulos: Español Latino PGS - Ingles PGS
  • Resolución: 1920x1080p
  • Formato: MKV
  • Codec: H.264
  • Encoder: CinefiloCool
  • Mediainfo: Clic para Mostrar Datos Ver
  • Deja Vu (2006) Full HD 1080p Latino-CMHDD.mkv
    Format                      : Matroska
    Format version              : Version 4
    File size                   : 10.1 GiB
    Duration                    : 2 h 6 min
    Overall bit rate            : 11.4 Mb/s
    Movie name                  : Deja Vu (2006) CinemaniaHDD.Net
    Encoded date                : UTC 2021-01-15 03:28:09
    Writing application         : mkvmerge v51.0.0 ('I Wish') 64-bit
    Writing library             : libebml v1.4.0 + libmatroska v1.6.2
    Attachments                 : CINEMANIAHD.png

    Video
    ID                          : 1
    Format                      : AVC
    Format/Info                 : Advanced Video Codec
    Format profile              : High@L4.1
    Format settings             : CABAC / 4 Ref Frames
    Format settings, CABAC      : Yes
    Format settings, Reference  : 4 frames
    Codec ID                    : V_MPEG4/ISO/AVC
    Duration                    : 2 h 6 min
    Bit rate                    : 9 242 kb/s
    Width                       : 1 920 pixels
    Height                      : 1 080 pixels
    Display aspect ratio        : 16:9
    Frame rate mode             : Constant
    Frame rate                  : 23.976 (24000/1001) FPS
    Color space                 : YUV
    Chroma subsampling          : 4:2:0
    Bit depth                   : 8 bits
    Scan type                   : Progressive
    Bits/(Pixel*Frame)          : 0.186
    Stream size                 : 8.16 GiB (81%)
    Title                       : Full HD1080p [CinemaniaHDD]
    Writing library             : x264 core 157 r2935 545de2f
    Encoding settings           : cabac=1 / ref=4 / deblock=1:0:0 / analyse=0x3:0x133 / me=tesa / subme=11 / psy=1 / psy_rd=1.00:0.00 / mixed_ref=1 / me_range=24 / chroma_me=1 / trellis=2 / 8x8dct=1 / cqm=0 / deadzone=21,11 / fast_pskip=0 / chroma_qp_offset=-2 / threads=24 / lookahead_threads=6 / sliced_threads=0 / nr=0 / decimate=1 / interlaced=0 / bluray_compat=0 / constrained_intra=0 / bframes=16 / b_pyramid=2 / b_adapt=2 / b_bias=0 / direct=3 / weightb=1 / open_gop=0 / weightp=2 / keyint=240 / keyint_min=24 / scenecut=40 / intra_refresh=0 / rc_lookahead=60 / rc=crf / mbtree=1 / crf=20.0 / qcomp=0.60 / qpmin=0 / qpmax=69 / qpstep=4 / vbv_maxrate=62500 / vbv_bufsize=78125 / crf_max=0.0 / nal_hrd=none / filler=0 / ip_ratio=1.40 / aq=1:1.00
    Default                     : Yes
    Forced                      : Yes
    Color range                 : Limited
    Color primaries             : BT.709
    Transfer characteristics    : BT.709
    Matrix coefficients         : BT.709

    Audio #1
    ID                          : 2
    Format                      : AC-3
    Format/Info                 : Audio Coding 3
    Commercial name             : Dolby Digital
    Codec ID                    : A_AC3
    Duration                    : 2 h 6 min
    Bit rate mode               : Constant
    Bit rate                    : 640 kb/s
    Channel(s)                  : 6 channels
    Channel layout              : L R C LFE Ls Rs
    Sampling rate               : 48.0 kHz
    Frame rate                  : 31.250 FPS (1536 SPF)
    Compression mode            : Lossy
    Stream size                 : 579 MiB (6%)
    Title                       : Español Latino [CinemaniaHDD]
    Language                    : Spanish
    Service kind                : Complete Main
    Default                     : Yes
    Forced                      : Yes

    Audio #2
    ID                          : 3
    Format                      : DTS
    Format/Info                 : Digital Theater Systems
    Codec ID                    : A_DTS
    Duration                    : 2 h 6 min
    Bit rate mode               : Constant
    Bit rate                    : 1 509 kb/s
    Channel(s)                  : 6 channels
    Channel layout              : C L R Ls Rs LFE
    Sampling rate               : 48.0 kHz
    Frame rate                  : 93.750 FPS (512 SPF)
    Bit depth                   : 24 bits
    Compression mode            : Lossy
    Stream size                 : 1.34 GiB (13%)
    Title                       : Ingles [CinemaniaHDD]
    Language                    : English
    Default                     : No
    Forced                      : No

    Text #1
    ID                          : 4
    Format                      : PGS
    Muxing mode                 : zlib
    Codec ID                    : S_HDMV/PGS
    Codec ID/Info               : Picture based subtitle format used on BDs/HD-DVDs
    Duration                    : 1 h 57 min
    Bit rate                    : 921 b/s
    Count of elements           : 80
    Stream size                 : 791 KiB (0%)
    Title                       : Forzados-PGS [CinemaniaHDD]
    Language                    : Spanish
    Default                     : Yes
    Forced                      : Yes

    Text #2
    ID                          : 5
    Format                      : PGS
    Muxing mode                 : zlib
    Codec ID                    : S_HDMV/PGS
    Codec ID/Info               : Picture based subtitle format used on BDs/HD-DVDs
    Duration                    : 1 h 57 min
    Bit rate                    : 34.8 kb/s
    Count of elements           : 3137
    Stream size                 : 29.2 MiB (0%)
    Title                       : Español-PGS [CinemaniaHDD]
    Language                    : Spanish
    Default                     : No
    Forced                      : No

    Text #3
    ID                          : 6
    Format                      : PGS
    Muxing mode                 : zlib
    Codec ID                    : S_HDMV/PGS
    Codec ID/Info               : Picture based subtitle format used on BDs/HD-DVDs
    Duration                    : 1 h 55 min
    Bit rate                    : 37.4 kb/s
    Count of elements           : 3053
    Stream size                 : 30.9 MiB (0%)
    Title                       : Ingles-PGS [CinemaniaHDD]
    Language                    : English
    Default                     : No
    Forced                      : No

    Text #4
    ID                          : 7
    Format                      : UTF-8
    Codec ID                    : S_TEXT/UTF8
    Codec ID/Info               : UTF-8 Plain Text
    Duration                    : 1 h 57 min
    Bit rate                    : 1 b/s
    Count of elements           : 40
    Stream size                 : 1.20 KiB (0%)
    Title                       : Forzados-SRT [CinemaniaHDD]
    Language                    : Spanish
    Default                     : No
    Forced                      : No

    Text #5
    ID                          : 8
    Format                      : UTF-8
    Codec ID                    : S_TEXT/UTF8
    Codec ID/Info               : UTF-8 Plain Text
    Duration                    : 1 h 57 min
    Bit rate                    : 65 b/s
    Count of elements           : 1563
    Stream size                 : 56.3 KiB (0%)
    Title                       : Español-SRT [CinemaniaHDD]
    Language                    : Spanish
    Default                     : No
    Forced                      : No

    Menu
    00:00:00.000                : en:Act of Terrorism
    00:06:20.755                : en:A Crime Investigation
    00:15:32.682                : en:Claire Kachever
    00:24:59.206                : en:Unique Time Constraints
    00:30:20.235                : en:Snow White
    00:38:37.357                : en:Who's Watching Her?
    00:42:57.992                : en:That's Him
    00:49:30.384                : en:Something Breached the Field
    00:55:52.391                : en:Branching the Universe
    00:59:57.385                : en:Out of Range
    01:14:15.618                : en:Motive
    01:20:38.000                : en:Four Days Ago
    01:29:00.418                : en:They'd Never Believe You
    01:42:49.371                : en:Change of Plans
    01:54:41.416                : en:Have We Met?
    01:58:06.621                : en:End Credits

  • Peso: 10.1 GiB

Sinopsis

Descargar Déjà Vu (2006) Full HD 1080p Latino. Tras una terrible explosión de una bomba en un Ferry de Nueva Orleans, el agente Doug Carlin descubre que es obra de un terrorista. Por su perspicacia para analizar y distinguir rápidamente lo relevante de lo secundario en el escenario del crimen, Carlin es asignado a un misterioso nuevo equipo de investigación que utiliza una sofisticada máquina que permite algo extraordinario…

Ficha técnica

Video trailer de la película

Enlaces de descarga

Rip de Bluray

Descargar Déjà Vu (2006) Full HD 1080p Latino




Aportes de DPeliculasHDmega la pass es:dpeliculashdmega.org Aportes de CinemaniaHD la pass es:cinemaniahdd.com

Películas relacionadas

  • 100% Lobo (2020) PLACEBO Full HD 1080p Latino

    100% Lobo (2020) PLACEBO Full HD 1080p Latino

    2020
    100% Lobo (2020) PLACEBO Full HD 1080p Latino

    0.0 1h 25m 2020

    Descargar 100% Lobo (2020) PLACEBO Full HD 1080p Latino. Freddy Lupin pertenece a una orgullosa familia...

    Director: Alexs Stadermann

    Género: Animación

    Actores: Samara Weaving

  • Sins and Seductions (2018) Star WEB-DL 1080p Latino

    Sins and Seductions (2018) Star WEB-DL 1080p Latino

    2019
    Sins and Seductions (2018) Star WEB-DL 1080p Latino

    5.0 1h 21m 2019

    Cuando la progresista pastora Leslie Reynolds da la bienvenida a una dulce pareja a su iglesia no se...

    Director: Jake Helgren

    Género: Misterio

    Actores: Toby Leeder

  • Sentinelle (2021) NF WEB-DL 1080p Latino

    Sentinelle (2021) NF WEB-DL 1080p Latino

    2021
    Sentinelle (2021) NF WEB-DL 1080p Latino

    5.0 1h 20m 2021

    De regreso en su casa tras una traumática misión de combate, una soldado altamente capacitada emplea...

    Director: Julien Leclercq

    Género: Acción

    Actores: Olga Kurylenko

  • El gran Gatsby (2013) Full HD 1080p Latino

    El gran Gatsby (2013) Full HD 1080p Latino

    2013
    El gran Gatsby (2013) Full HD 1080p Latino

    0.0 2h 23m 2013

    Descargar El gran Gatsby (2013) Full HD 1080p Latino. Adaptación de la novela homónima de F. Scott...

    Director: Baz Luhrmann

    Género: Actualizadas

    Actores: Vince Colosimo

Déjà Vu (2006) Full HD 1080p Latino pelicula full hd, Déjà Vu (2006) Full HD 1080p Latino mega latino, Déjà Vu (2006) Full HD 1080p Latino 4k latino, Déjà Vu (2006) Full HD 1080p Latino pelicula completa, Déjà Vu (2006) Full HD 1080p Latino descargar gratis, descargar Déjà Vu (2006) Full HD 1080p Latino pelicula latino, Déjà Vu (2006) Full HD 1080p Latino 1 link mega, Déjà Vu (2006) Full HD 1080p Latino 1 link google drive, Déjà Vu (2006) Full HD 1080p Latino hd 1080p latino.
Comentarios 0