×

¿Problemas para descargar con Mozilla, EDGE? Deshabilita la opción "Abrir vinculos en una pestaña nueva" tal como lo muestra ésta imagen.

Definitivamente, tal vez (2008) Full HD 1080p Latino

444 vistas

Información de Definitivamente, tal vez (2008) Full HD 1080p Latino

Datos de la película

  • Calidad: Full 1080p
  • Audio: Español Latino DTS 5.1 BLURAY - Ingles DTS 5.1 BLURAY
  • Subtitulos: Español Latino SRT- FORZADOS SRT
  • Resolución: 1920x1080p
  • Formato: MKV
  • Codec: H.264
  • Encoder: Dracarys
  • Mediainfo: Clic para Mostrar Datos Ver
  • Format                      : Matroska
    Format version              : Version 4
    File size                   : 6.26 GiB
    Duration                    : 1 h 51 min
    Overall bit rate            : 8 027 kb/s
    Movie name                  : Definitivamente, tal vez (2008) Full HD 1080p Latino
    Encoded date                : UTC 2020-05-21 23:26:24
    Writing application         : mkvmerge v46.0.0 ('No Deeper Escape') 64-bit
    Writing library             : libebml v1.3.10 + libmatroska v1.5.2

    Video
    ID                          : 1
    Format                      : AVC
    Format/Info                 : Advanced Video Codec
    Format profile              : High@L4.1
    Format settings             : CABAC / 4 Ref Frames
    Format settings, CABAC      : Yes
    Format settings, Reference  : 4 frames
    Codec ID                    : V_MPEG4/ISO/AVC
    Duration                    : 1 h 51 min
    Bit rate                    : 5 735 kb/s
    Width                       : 1 920 pixels
    Height                      : 1 080 pixels
    Display aspect ratio        : 16:9
    Frame rate mode             : Constant
    Frame rate                  : 23.976 (24000/1001) FPS
    Color space                 : YUV
    Chroma subsampling          : 4:2:0
    Bit depth                   : 8 bits
    Scan type                   : Progressive
    Bits/(Pixel*Frame)          : 0.115
    Stream size                 : 4.47 GiB (71%)
    Writing library             : x264 core 157 r2935 545de2f
    Encoding settings           : cabac=1 / ref=4 / deblock=1:0:0 / analyse=0x3:0x133 / me=tesa / subme=11 / psy=1 / psy_rd=1.00:0.00 / mixed_ref=1 / me_range=24 / chroma_me=1 / trellis=2 / 8x8dct=1 / cqm=0 / deadzone=21,11 / fast_pskip=0 / chroma_qp_offset=-2 / threads=24 / lookahead_threads=6 / sliced_threads=0 / nr=0 / decimate=1 / interlaced=0 / bluray_compat=0 / constrained_intra=0 / bframes=16 / b_pyramid=2 / b_adapt=2 / b_bias=0 / direct=3 / weightb=1 / open_gop=0 / weightp=2 / keyint=240 / keyint_min=24 / scenecut=40 / intra_refresh=0 / rc_lookahead=60 / rc=crf / mbtree=1 / crf=20.0 / qcomp=0.60 / qpmin=0 / qpmax=69 / qpstep=4 / vbv_maxrate=62500 / vbv_bufsize=78125 / crf_max=0.0 / nal_hrd=none / filler=0 / ip_ratio=1.40 / aq=1:1.00
    Default                     : Yes
    Forced                      : No
    Color range                 : Limited
    Color primaries             : BT.709
    Transfer characteristics    : BT.709
    Matrix coefficients         : BT.709

    Audio #1
    ID                          : 2
    Format                      : DTS
    Format/Info                 : Digital Theater Systems
    Codec ID                    : A_DTS
    Duration                    : 1 h 51 min
    Bit rate mode               : Constant
    Bit rate                    : 768 kb/s
    Channel(s)                  : 6 channels
    Channel layout              : C L R Ls Rs LFE
    Sampling rate               : 48.0 kHz
    Frame rate                  : 93.750 FPS (512 SPF)
    Bit depth                   : 24 bits
    Compression mode            : Lossy
    Stream size                 : 613 MiB (10%)
    Language                    : Spanish
    Default                     : Yes
    Forced                      : No

    Audio #2
    ID                          : 3
    Format                      : DTS
    Format/Info                 : Digital Theater Systems
    Codec ID                    : A_DTS
    Duration                    : 1 h 51 min
    Bit rate mode               : Constant
    Bit rate                    : 1 509 kb/s
    Channel(s)                  : 6 channels
    Channel layout              : C L R Ls Rs LFE
    Sampling rate               : 48.0 kHz
    Frame rate                  : 93.750 FPS (512 SPF)
    Bit depth                   : 24 bits
    Compression mode            : Lossy
    Stream size                 : 1.18 GiB (19%)
    Language                    : English
    Default                     : No
    Forced                      : No

    Text #1
    ID                          : 4
    Format                      : UTF-8
    Codec ID                    : S_TEXT/UTF8
    Codec ID/Info               : UTF-8 Plain Text
    Duration                    : 1 h 10 min
    Bit rate                    : 0 b/s
    Count of elements           : 8
    Stream size                 : 374 Bytes (0%)
    Title                       : SRT-Forzados
    Language                    : Spanish
    Default                     : Yes
    Forced                      : No

    Text #2
    ID                          : 5
    Format                      : UTF-8
    Codec ID                    : S_TEXT/UTF8
    Codec ID/Info               : UTF-8 Plain Text
    Duration                    : 1 h 45 min
    Bit rate                    : 60 b/s
    Count of elements           : 1547
    Stream size                 : 46.5 KiB (0%)
    Title                       : SRT-Completos
    Language                    : Spanish
    Default                     : No
    Forced                      : No

    Text #3
    ID                          : 6
    Format                      : PGS
    Muxing mode                 : zlib
    Codec ID                    : S_HDMV/PGS
    Codec ID/Info               : Picture based subtitle format used on BDs/HD-DVDs
    Duration                    : 1 h 45 min
    Bit rate                    : 37.3 kb/s
    Count of elements           : 3095
    Stream size                 : 28.1 MiB (0%)
    Title                       : PGS-Completos
    Language                    : Spanish
    Default                     : No
    Forced                      : No

    Text #4
    ID                          : 7
    Format                      : PGS
    Muxing mode                 : zlib
    Codec ID                    : S_HDMV/PGS
    Codec ID/Info               : Picture based subtitle format used on BDs/HD-DVDs
    Duration                    : 1 h 10 min
    Bit rate                    : 476 b/s
    Count of elements           : 16
    Stream size                 : 248 KiB (0%)
    Title                       : PGS-Forzados
    Language                    : Spanish
    Default                     : No
    Forced                      : No

    Menu
    00:00:00.000                : :Chapter 1
    00:05:56.857                : :Chapter 2
    00:11:45.038                : :Chapter 3
    00:18:52.840                : :Chapter 4
    00:21:40.758                : :Chapter 5
    00:27:51.503                : :Chapter 6
    00:31:52.828                : :Chapter 7
    00:38:15.627                : :Chapter 8
    00:42:16.826                : :Chapter 9
    00:50:41.163                : :Chapter 10
    00:58:33.510                : :Chapter 11
    01:04:29.824                : :Chapter 12
    01:09:41.135                : :Chapter 13
    01:14:06.859                : :Chapter 14
    01:19:59.128                : :Chapter 15
    01:27:16.565                : :Chapter 16
    01:33:17.634                : :Chapter 17
    01:36:32.620                : :Chapter 18
    01:40:58.511                : :Chapter 19
    01:46:54.074                : :Chapter 20

  • Peso: 6.26 GiB

Sinopsis

Will Hayes (Ryan Reynolds) es un papá de treinta y pico años en pleno divorcio. Su hija (Abigail Breslin) de diez años le pregunta por su vida antes de casarse, quiere enterarse de cómo se conocieron sus padres, de cómo se enamoraron. Para contestar a Maya, Will rememora el pasado de un joven idealista que aprende los tejemanejes de la política en una gran ciudad, y le cuenta que conoció a tres mujeres. Desesperado, intenta construir una versión “tolerada” para su hija y cambia los nombres de las protagonistas. Maya tendrá que adivinar con cuál de las tres acabó casándose. ¿Quién es su madre? ¿Emily (Elizabeth Banks), la novia de universidad de Will? ¿O quizá sea su amiga de siempre, su confidente, la apolítica April (Isla Fisher)? Aunque también podría ser una ambiciosa e inconformista periodista llamada Summer (Rachel Weisz). Maya empieza a unir las piezas del rompecabezas romántico de su padre y entiende que el amor no es fácil ni simple.

Ficha técnica

Video trailer de la película

Enlaces de descarga

Rip de Bluray

Descargar Definitivamente, tal vez (2008) Full HD 1080p Latino




Aportes de DPeliculasHDmega la pass es:dpeliculashdmega.org Aportes de CinemaniaHD la pass es:cinemaniahdd.com

Películas relacionadas

descargar Definitivamente, tal vez (2008) Full HD 1080p Latino Full 1080p 1080p gratis, Definitivamente, tal vez (2008) Full HD 1080p Latino Full 1080p mega 1 link, Definitivamente, tal vez (2008) Full HD 1080p Latino Full 1080p pelicula completa, descargar Definitivamente, tal vez (2008) Full HD 1080p Latino Full 1080p gratis en mega.

Definitivamente, tal vez (2008) Full HD 1080p Latino pelicula full hd, Definitivamente, tal vez (2008) Full HD 1080p Latino mega latino, Definitivamente, tal vez (2008) Full HD 1080p Latino 4k latino, Definitivamente, tal vez (2008) Full HD 1080p Latino pelicula completa, Definitivamente, tal vez (2008) Full HD 1080p Latino descargar gratis, descargar Definitivamente, tal vez (2008) Full HD 1080p Latino pelicula latino, Definitivamente, tal vez (2008) Full HD 1080p Latino 1 link mega, Definitivamente, tal vez (2008) Full HD 1080p Latino 1 link google drive, Definitivamente, tal vez (2008) Full HD 1080p Latino hd 1080p latino.
Comentarios 0