Deep Sea (2006) Full 1080p Latino [Documental]

1.689 vistas
1 estrella2 estrellas3 estrellas4 estrellas5 estrellas (4 votos, promedio: 5,00 de 5)
Cargando…

Información de Deep Sea (2006) Full 1080p Latino [Documental]

Datos de la película

  • Calidad: Full 1080p
  • Audio: Español Latino AC3 5.1 BLURAY - Ingles AC3 5.1 BLURAY
  • Subtitulos: Español Latino PGS - Ingles PGS
  • Resolución: 1920x1080p
  • Formato: MKV
  • Codec: H.264
  • Encoder: Dracarys
  • Mediainfo: Clic para Mostrar Datos Ver
  • Format                                   : Matroska
    Format version                           : Version 4 / Version 2
    File size                                : 2.32 GiB
    Duration                                 : 40 min 49 s
    Overall bit rate                         : 8 133 kb/s
    Encoded date                             : UTC 2018-07-12 03:13:50 / UTC 2018-07-02T08:53:38Z
    Writing application                      : mkvmerge v15.0.0 ('Duel with the Devil') 64-bit
    Writing library                          : libebml v1.3.5 + libmatroska v1.4.5 / Lavf57.7.2

    Video
    ID                                       : 1
    Format                                   : AVC
    Format/Info                              : Advanced Video Codec
    Format profile                           : High@L4.1
    Format settings                          : CABAC / 4 Ref Frames
    Format settings, CABAC                   : Yes
    Format settings, RefFrames               : 4 frames
    Codec ID                                 : V_MPEG4/ISO/AVC
    Duration                                 : 40 min 49 s
    Bit rate                                 : 7 075 kb/s
    Width                                    : 1 920 pixels
    Height                                   : 1 080 pixels
    Display aspect ratio                     : 16:9
    Frame rate mode                          : Constant
    Frame rate                               : 23.976 (24000/1001) FPS
    Color space                              : YUV
    Chroma subsampling                       : 4:2:0
    Bit depth                                : 8 bits
    Scan type                                : Progressive
    Bits/(Pixel*Frame)                       : 0.142
    Stream size                              : 2.02 GiB (87%)
    Title                                    : Deep Sea 2006 3D
    Writing library                          : x264 core 148 r2708 86b7198
    Encoding settings                        : cabac=1 / ref=4 / deblock=1:0:0 / analyse=0x3:0x133 / me=esa / subme=10 / psy=1 / psy_rd=1.00:0.00 / mixed_ref=1 / me_range=24 / chroma_me=1 / trellis=2 / 8x8dct=1 / cqm=0 / deadzone=21,11 / fast_pskip=1 / chroma_qp_offset=-2 / threads=34 / lookahead_threads=5 / sliced_threads=0 / nr=0 / decimate=1 / interlaced=0 / bluray_compat=0 / constrained_intra=0 / bframes=8 / b_pyramid=2 / b_adapt=2 / b_bias=0 / direct=3 / weightb=1 / open_gop=0 / weightp=2 / keyint=240 / keyint_min=24 / scenecut=40 / intra_refresh=0 / rc_lookahead=60 / rc=crf / mbtree=1 / crf=20.0 / qcomp=0.60 / qpmin=0 / qpmax=69 / qpstep=4 / vbv_maxrate=62500 / vbv_bufsize=78125 / crf_max=0.0 / nal_hrd=none / filler=0 / ip_ratio=1.40 / aq=1:1.00
    Language                                 : English
    Default                                  : Yes
    Forced                                   : No
    Color range                              : Limited
    Color primaries                          : BT.709
    Transfer characteristics                 : BT.709
    Matrix coefficients                      : BT.709
    Statistics Tags Issue                    : mkvmerge v15.0.0 ('Duel with the Devil') 64-bit 2018-07-12 03:13:50 / mkvmerge v15.0.0 ('Duel with the Devil') 64-bit 2018-07-12 03:13:50 / UTC 2018-07-02T08:53:38Z
    FromStats_BitRate                        : 7218710
    FromStats_Duration                       : 00:40:49.322000000
    FromStats_FrameCount                     : 58725
    FromStats_StreamSize                     : 2210118449

    Audio #1
    ID                                       : 2
    Format                                   : AC-3
    Format/Info                              : Audio Coding 3
    Format settings, Endianness              : Big
    Codec ID                                 : A_AC3
    Duration                                 : 40 min 49 s
    Bit rate mode                            : Constant
    Bit rate                                 : 448 kb/s
    Channel(s)                               : 6 channels
    Channel positions                        : Front: L C R, Side: L R, LFE
    Sampling rate                            : 48.0 kHz
    Frame rate                               : 31.250 FPS (1536 SPF)
    Bit depth                                : 16 bits
    Compression mode                         : Lossy
    Stream size                              : 131 MiB (6%)
    Language                                 : Spanish
    Service kind                             : Complete Main
    Default                                  : Yes
    Forced                                   : No
    Statistics Tags Issue                    : mkvmerge v15.0.0 ('Duel with the Devil') 64-bit 2018-07-12 03:13:50 / mkvmerge v15.0.0 ('Duel with the Devil') 64-bit 2018-07-12 03:13:50 / UTC 2018-07-02T08:53:38Z
    FromStats_BitRate                        : 448000
    FromStats_Duration                       : 00:40:49.408000000
    FromStats_FrameCount                     : 76544
    FromStats_StreamSize                     : 137166848

    Audio #2
    ID                                       : 3
    Format                                   : AC-3
    Format/Info                              : Audio Coding 3
    Format settings, Endianness              : Big
    Codec ID                                 : A_AC3
    Duration                                 : 40 min 49 s
    Bit rate mode                            : Constant
    Bit rate                                 : 448 kb/s
    Channel(s)                               : 6 channels
    Channel positions                        : Front: L C R, Side: L R, LFE
    Sampling rate                            : 48.0 kHz
    Frame rate                               : 31.250 FPS (1536 SPF)
    Bit depth                                : 16 bits
    Compression mode                         : Lossy
    Stream size                              : 131 MiB (6%)
    Language                                 : English
    Service kind                             : Complete Main
    Default                                  : No
    Forced                                   : No
    Statistics Tags Issue                    : mkvmerge v15.0.0 ('Duel with the Devil') 64-bit 2018-07-12 03:13:50 / mkvmerge v15.0.0 ('Duel with the Devil') 64-bit 2018-07-12 03:13:50 / UTC 2018-07-02T08:53:38Z
    FromStats_BitRate                        : 448000
    FromStats_Duration                       : 00:40:49.408000000
    FromStats_FrameCount                     : 76544
    FromStats_StreamSize                     : 137166848

    Text #1
    ID                                       : 4
    Format                                   : PGS
    Muxing mode                              : zlib
    Codec ID                                 : S_HDMV/PGS
    Codec ID/Info                            : Picture based subtitle format used on BDs/HD-DVDs
    Language                                 : Spanish
    Default                                  : Yes
    Forced                                   : No
    Statistics Tags Issue                    : mkvmerge v15.0.0 ('Duel with the Devil') 64-bit 2018-07-12 03:13:50 / mkvmerge v15.0.0 ('Duel with the Devil') 64-bit 2018-07-12 03:13:50 / UTC 2018-07-02T08:53:38Z
    FromStats_BitRate                        : 27899
    FromStats_Duration                       : 00:36:19.719000000
    FromStats_FrameCount                     : 584
    FromStats_StreamSize                     : 7601640

    Text #2
    ID                                       : 5
    Format                                   : PGS
    Muxing mode                              : zlib
    Codec ID                                 : S_HDMV/PGS
    Codec ID/Info                            : Picture based subtitle format used on BDs/HD-DVDs
    Language                                 : English
    Default                                  : No
    Forced                                   : No
    Statistics Tags Issue                    : mkvmerge v15.0.0 ('Duel with the Devil') 64-bit 2018-07-12 03:13:50 / mkvmerge v15.0.0 ('Duel with the Devil') 64-bit 2018-07-12 03:13:50 / UTC 2018-07-02T08:53:38Z
    FromStats_BitRate                        : 26913
    FromStats_Duration                       : 00:36:19.719000000
    FromStats_FrameCount                     : 618
    FromStats_StreamSize                     : 7333005

  • Peso: 2.32 GiB

Sinopsis

Deep Sea 3D es una aventura de inmersión submarina de IMAX que transporta a la audiencia a grandes profundidades bajo la superficie del océano, la conduce a varios lugares por las aguas del globo y les muestra cosas nunca antes vistas: Un encuentro cercano con un amplio espectro de los más exóticos integrantes de la vida submarina.

Ficha técnica

  • Titulo original: Deep Sea 3D
  • Fecha de lanzamiento: 03-03-2006 (Canada, United States of America)
  • Director: Howard Hall
  • Género: Documental, FULL 1080p Plateadas
  • Puntuación: 5.0 4 votos
  • Duración:
    40 min 49 s

Video trailer de la película

Enlaces de descarga

Rip de Bluray

Descargar Deep Sea (2006) Full 1080p Latino [Documental]




Aportes de DPeliculasHDmega la pass es:dpeliculashdmega.org Aportes de CinemaniaHD la pass es:cinemaniahdd.com

Películas relacionadas

  • Mision: Imposible 2 (2000) Full 1080p Latino

    2000
    Mision: Imposible 2 (2000) Full 1080p Latino

    3.0 2h 3m 2000

    Descargar Mision: Imposible 2 (2000) Full 1080p Latino, Mega, Google Drive. El agente especial Ethan...

    Director: William H. Burton Jr.

    Género: Acción

    Actores: William Mapother

  • Mision: Imposible (1996) Full 1080p Latino

    1996
    Mision: Imposible (1996) Full 1080p Latino

    3.7 1h 50m 1996

    Mission: Impossible (1996) Full 1080p Latino, Mega, Google Drive. Ethan Hunt es un superespía capaz...

    Director: Nick Moore

    Género: Acción

    Actores: Ving Rhames

  • Los increíbles 2 (2018) Full 1080p Latino

    2018
    Los increíbles 2 (2018) Full 1080p Latino

    4.4 1h 58m 2018

    Helen tiene que liderar una campaña para que los superhéroes regresen, mientras Bob vive su vida "normal"...

    Director: Seong-Young Kim

    Género: Acción

    Actores: Usher

  • El Justiciero 2 (2018) Full 1080p Latino

    2018
    El Justiciero 2 (2018) Full 1080p Latino

    5.0 2h 0m 2018

    Descargar El Justiciero 2 (2018) Full 1080p Latino, Mega, Google Drive. Robert McCall (Denzel Washington)...

    Director: Donald Sparks

    Género: Acción

    Actores: Wesley Pereira

Comentarios 2
  • Gabriel - 25 julio, 2018

    Gracias! Descargando!

  • frank - 14 julio, 2018

    muchas gracias