×

¿Problemas para descargar con Mozilla, EDGE? Deshabilita la opción "Abrir vinculos en una pestaña nueva" tal como lo muestra ésta imagen.

Deep Impact (1998) REMUX 1080p Latino – CMHDD

307 vistas

Información de Deep Impact (1998) REMUX 1080p Latino – CMHDD

Datos de la película

  • Calidad: Full 1080p
  • Audio: Español Latino AC3 5.1 BLURAY - Ingles AC3 5.1 BLURAY
  • Subtitulos: Español Latino PGS
  • Resolución: 1920x1080p
  • Formato: MKV
  • Codec: H.264
  • Encoder: Dracarys
  • Mediainfo: Clic para Mostrar Datos Ver
  • Format                      : Matroska
    Format version              : Version 4
    File size                   : 31.8 GiB
    Duration                    : 2 h 1 min
    Overall bit rate mode       : Variable
    Overall bit rate            : 37.5 Mb/s
    Movie name                  : Deep Impact (1998) REMUX 1080p Latino - CMHDD
    Encoded date                : UTC 2022-01-30 19:53:34
    Writing application         : mkvmerge v17.0.0 ('Be Ur Friend') 64-bit
    Writing library             : libebml v1.3.5 + libmatroska v1.4.8

    Video
    ID                          : 1
    Format                      : AVC
    Format/Info                 : Advanced Video Codec
    Format profile              : High@L4.1
    Format settings             : CABAC / 4 Ref Frames
    Format settings, CABAC      : Yes
    Format settings, Reference  : 4 frames
    Codec ID                    : V_MPEG4/ISO/AVC
    Duration                    : 2 h 1 min
    Bit rate mode               : Variable
    Bit rate                    : 32.2 Mb/s
    Maximum bit rate            : 34.4 Mb/s
    Width                       : 1 920 pixels
    Height                      : 1 080 pixels
    Display aspect ratio        : 16:9
    Frame rate mode             : Constant
    Frame rate                  : 23.976 (24000/1001) FPS
    Color space                 : YUV
    Chroma subsampling          : 4:2:0
    Bit depth                   : 8 bits
    Scan type                   : Progressive
    Bits/(Pixel*Frame)          : 0.648
    Stream size                 : 27.3 GiB (86%)
    Default                     : Yes
    Forced                      : No
    Color range                 : Limited
    Color primaries             : BT.709
    Transfer characteristics    : BT.709
    Matrix coefficients         : BT.709

    Audio #1
    ID                          : 2
    Format                      : MLP FBA
    Format/Info                 : Meridian Lossless Packing FBA
    Commercial name             : Dolby TrueHD
    Codec ID                    : A_TRUEHD
    Duration                    : 2 h 1 min
    Bit rate mode               : Variable
    Bit rate                    : 3 962 kb/s
    Maximum bit rate            : 5 544 kb/s
    Channel(s)                  : 6 channels
    Channel layout              : L R C LFE Ls Rs
    Sampling rate               : 48.0 kHz
    Frame rate                  : 1 200.000 FPS (40 SPF)
    Compression mode            : Lossless
    Stream size                 : 3.35 GiB (11%)
    Language                    : English
    Default                     : No
    Forced                      : No

    Audio #2
    ID                          : 3
    Format                      : AC-3
    Format/Info                 : Audio Coding 3
    Commercial name             : Dolby Digital
    Codec ID                    : A_AC3
    Duration                    : 2 h 1 min
    Bit rate mode               : Constant
    Bit rate                    : 640 kb/s
    Channel(s)                  : 6 channels
    Channel layout              : L R C LFE Ls Rs
    Sampling rate               : 48.0 kHz
    Frame rate                  : 31.250 FPS (1536 SPF)
    Compression mode            : Lossy
    Stream size                 : 555 MiB (2%)
    Language                    : English
    Service kind                : Complete Main
    Default                     : No
    Forced                      : No

    Audio #3
    ID                          : 4
    Format                      : AC-3
    Format/Info                 : Audio Coding 3
    Commercial name             : Dolby Digital
    Codec ID                    : A_AC3
    Duration                    : 2 h 1 min
    Bit rate mode               : Constant
    Bit rate                    : 640 kb/s
    Channel(s)                  : 6 channels
    Channel layout              : L R C LFE Ls Rs
    Sampling rate               : 48.0 kHz
    Frame rate                  : 31.250 FPS (1536 SPF)
    Compression mode            : Lossy
    Stream size                 : 555 MiB (2%)
    Language                    : Spanish
    Service kind                : Complete Main
    Default                     : Yes
    Forced                      : No

    Text #1
    ID                          : 5
    Format                      : PGS
    Muxing mode                 : zlib
    Codec ID                    : S_HDMV/PGS
    Codec ID/Info               : Picture based subtitle format used on BDs/HD-DVDs
    Duration                    : 1 h 52 min
    Bit rate                    : 35.5 kb/s
    Count of elements           : 2700
    Stream size                 : 28.5 MiB (0%)
    Language                    : Spanish
    Default                     : No
    Forced                      : No

    Text #2
    ID                          : 6
    Format                      : PGS
    Muxing mode                 : zlib
    Codec ID                    : S_HDMV/PGS
    Codec ID/Info               : Picture based subtitle format used on BDs/HD-DVDs
    Duration                    : 2 s 670 ms
    Bit rate                    : 73.1 kb/s
    Count of elements           : 2
    Stream size                 : 23.8 KiB (0%)
    Language                    : Spanish
    Default                     : No
    Forced                      : No

    Menu
    00:00:00.000                : en:Chapter 1
    00:02:37.615                : en:Chapter 2
    00:07:01.754                : en:Chapter 3
    00:10:53.944                : en:Chapter 4
    00:17:10.988                : en:Chapter 5
    00:20:37.861                : en:Chapter 6
    00:22:21.631                : en:Chapter 7
    00:25:28.026                : en:Chapter 8
    00:35:00.932                : en:Chapter 9
    00:39:13.267                : en:Chapter 10
    00:43:58.886                : en:Chapter 11
    00:51:49.022                : en:Chapter 12
    00:56:17.540                : en:Chapter 13
    01:00:15.778                : en:Chapter 14
    01:05:01.814                : en:Chapter 15
    01:09:42.219                : en:Chapter 16
    01:13:53.345                : en:Chapter 17
    01:18:10.602                : en:Chapter 18
    01:20:08.303                : en:Chapter 19
    01:22:52.467                : en:Chapter 20
    01:25:20.323                : en:Chapter 21
    01:27:46.844                : en:Chapter 22
    01:31:53.591                : en:Chapter 23
    01:34:23.074                : en:Chapter 24
    01:38:45.044                : en:Chapter 25
    01:40:55.424                : en:Chapter 26
    01:43:22.279                : en:Chapter 27
    01:46:15.118                : en:Chapter 28
    01:51:43.488                : en:Chapter 29
    01:53:23.838                : en:Chapter 30

  • Peso: 31.8 GiB

Sinopsis

El descubrimiento de un meteorito que viene en dirección a la Tierra a gran velocidad pone a toda la Humanidad en estado de alerta. Las naciones de todo el mundo preparan planes para tratar de salvar al mayor numero de personas y de especies animales posibles.

Ficha técnica

Video trailer de la película

Enlaces de descarga

Rip de Bluray

Descargar Deep Impact (1998) REMUX 1080p Latino – CMHDD


Aportes de DPeliculasHDmega la pass es:dpeliculashdmega.org Aportes de CinemaniaHD la pass es:cinemaniahdd.com
Guardado en : Acción , Ciencia ficción , Drama

Películas relacionadas

descargar Deep Impact (1998) REMUX 1080p Latino – CMHDD Full 1080p 1080p gratis, Deep Impact (1998) REMUX 1080p Latino – CMHDD Full 1080p mega 1 link, Deep Impact (1998) REMUX 1080p Latino – CMHDD Full 1080p pelicula completa, descargar Deep Impact (1998) REMUX 1080p Latino – CMHDD Full 1080p gratis en mega.

Deep Impact (1998) REMUX 1080p Latino – CMHDD pelicula full hd, Deep Impact (1998) REMUX 1080p Latino – CMHDD mega latino, Deep Impact (1998) REMUX 1080p Latino – CMHDD 4k latino, Deep Impact (1998) REMUX 1080p Latino – CMHDD pelicula completa, Deep Impact (1998) REMUX 1080p Latino – CMHDD descargar gratis, descargar Deep Impact (1998) REMUX 1080p Latino – CMHDD pelicula latino, Deep Impact (1998) REMUX 1080p Latino – CMHDD 1 link mega, Deep Impact (1998) REMUX 1080p Latino – CMHDD 1 link google drive, Deep Impact (1998) REMUX 1080p Latino – CMHDD hd 1080p latino.
Comentarios 0