×

¿Problemas para descargar con Mozilla, EDGE? Deshabilita la opción "Abrir vinculos en una pestaña nueva" tal como lo muestra ésta imagen.

Deep Blue Sea 3 (2020) WEB-DL 1080p Latino

389 vistas

Información de Deep Blue Sea 3 (2020) WEB-DL 1080p Latino

Datos de la película

  • Calidad: WEBDL
  • Audio: Español Latino AC3 5.1 iTunes - Ingles AC3 5.1 iTunes
  • Subtitulos: Español Latino SRT- FORZADOS SRT
  • Resolución: 1916x792
  • Formato: MKV
  • Codec: H.264
  • Encoder: CinemaniaHD
  • Mediainfo: Clic para Mostrar Datos Ver
  • Deep Blue Sea 3 (2020) WEB-DL 1080p Latino [CNMNHDD].mkv
    Format                      : Matroska
    Format version              : Version 4
    File size                   : 3.71 GiB
    Duration                    : 1 h 40 min
    Overall bit rate            : 5 311 kb/s
    Movie name                  : Deep Blue Sea 3 (2020) - CinemaniaHDD.Net
    Encoded date                : UTC 2020-07-28 02:15:20
    Writing application         : mkvmerge v46.0.0 ('No Deeper Escape') 64-bit
    Writing library             : libebml v1.3.10 + libmatroska v1.5.2
    Cover                       : Yes
    Attachments                 : cover.jpg

    Video
    ID                          : 1
    Format                      : AVC
    Format/Info                 : Advanced Video Codec
    Format profile              : High@L4
    Format settings             : CABAC / 5 Ref Frames
    Format settings, CABAC      : Yes
    Format settings, Reference  : 5 frames
    Codec ID                    : V_MPEG4/ISO/AVC
    Duration                    : 1 h 40 min
    Bit rate                    : 4 540 kb/s
    Width                       : 1 916 pixels
    Height                      : 792 pixels
    Display aspect ratio        : 2.40:1
    Frame rate mode             : Constant
    Frame rate                  : 23.976 (23976/1000) FPS
    Color space                 : YUV
    Chroma subsampling          : 4:2:0
    Bit depth                   : 8 bits
    Scan type                   : Progressive
    Bits/(Pixel*Frame)          : 0.125
    Stream size                 : 3.17 GiB (85%)
    Title                       : CinemaniaHDD
    Language                    : English
    Default                     : Yes
    Forced                      : No
    Color range                 : Limited
    Color primaries             : BT.709
    Transfer characteristics    : BT.709
    Matrix coefficients         : BT.709

    Audio #1
    ID                          : 2
    Format                      : AC-3
    Format/Info                 : Audio Coding 3
    Commercial name             : Dolby Digital
    Codec ID                    : A_AC3
    Duration                    : 1 h 40 min
    Bit rate mode               : Constant
    Bit rate                    : 384 kb/s
    Channel(s)                  : 6 channels
    Channel layout              : L R C LFE Ls Rs
    Sampling rate               : 48.0 kHz
    Frame rate                  : 31.250 FPS (1536 SPF)
    Compression mode            : Lossy
    Delay relative to video     : -42 ms
    Stream size                 : 275 MiB (7%)
    Title                       : Español latino [CinemaniaHDD]
    Language                    : Spanish
    Service kind                : Complete Main
    Default                     : Yes
    Forced                      : No

    Audio #2
    ID                          : 3
    Format                      : AC-3
    Format/Info                 : Audio Coding 3
    Commercial name             : Dolby Digital
    Codec ID                    : A_AC3
    Duration                    : 1 h 40 min
    Bit rate mode               : Constant
    Bit rate                    : 384 kb/s
    Channel(s)                  : 6 channels
    Channel layout              : L R C LFE Ls Rs
    Sampling rate               : 48.0 kHz
    Frame rate                  : 31.250 FPS (1536 SPF)
    Compression mode            : Lossy
    Delay relative to video     : -42 ms
    Stream size                 : 275 MiB (7%)
    Title                       : Inglés [CinemaniaHDD]
    Language                    : English
    Service kind                : Complete Main
    Default                     : No
    Forced                      : No

    Text #1
    ID                          : 4
    Format                      : UTF-8
    Codec ID                    : S_TEXT/UTF8
    Codec ID/Info               : UTF-8 Plain Text
    Duration                    : 57 min 41 s
    Bit rate                    : 0 b/s
    Count of elements           : 2
    Stream size                 : 59.0 Bytes (0%)
    Title                       : Forzados [CinemaniaHDD]
    Language                    : Spanish
    Default                     : Yes
    Forced                      : Yes

    Text #2
    ID                          : 5
    Format                      : UTF-8
    Codec ID                    : S_TEXT/UTF8
    Codec ID/Info               : UTF-8 Plain Text
    Duration                    : 1 h 38 min
    Bit rate                    : 47 b/s
    Count of elements           : 1045
    Stream size                 : 34.5 KiB (0%)
    Title                       : Español latino [CinemaniaHDD]
    Language                    : Spanish
    Default                     : No
    Forced                      : No

    Menu
    00:00:00.000                : en:1
    00:09:46.336                : en:2
    00:19:11.484                : en:3
    00:28:46.600                : en:4
    00:38:02.364                : en:5
    00:45:05.620                : en:6
    00:54:25.221                : en:7
    01:04:10.472                : en:8
    01:14:08.736                : en:9
    01:23:07.149                : en:10
    01:32:44.559                : en:11

     

  • Peso: 3.71 GiB

Sinopsis

Estás en Little Happy, una isla artificial diminuta en el Canal de Mozambique que alberga un criadero donde prospera la vida marina. Año tras año, los tiburones blancos llegan aquí para aparearse y parir. Este oasis de paz está bajo la supervisión de Emma Collins y su equipo de ambientalistas, quienes continuarán el legado de su padre ya fallecido. Sin embargo, la calma se interrumpe con la llegada del exnovio de Emma, cuya misión es cazar tres tiburones toro que masacraron a media docena de personas. Bella, la madre, es muy inteligente y destructiva producto de la ingeniería genética. A medida que se acumulan los muertos, se hace evidente que las crías de Bella heredaron sus mejoras y que, si se reproducen sin control, será el final para todos. ¡Sumérgete en el regreso más letal de Alerta en lo profundo hasta ahora!

Ficha técnica

Video trailer de la película

Enlaces de descarga

Rip de Bluray

Descargar Deep Blue Sea 3 (2020) WEB-DL 1080p Latino




Aportes de DPeliculasHDmega la pass es:dpeliculashdmega.org Aportes de CinemaniaHD la pass es:cinemaniahdd.com
Guardado en : Acción , Ciencia ficción , Terror

Películas relacionadas

  • Shotgun Wedding (2022) AMZN WEB-DL 1080p Latino

    Shotgun Wedding (2022) AMZN WEB-DL 1080p Latino

    2022
    Shotgun Wedding (2022) AMZN WEB-DL 1080p Latino

    1h 41m 2022

    Darcy y Tom reúnen a sus familias para la boda de destino definitiva, pero cuando toman como rehenes...

    Director: Jason Moore

    Género: Acción

    Actores: Steve Coulter

  • M3GAN (2023) AMZN WEB-DL 4K UHD HDR Latino

    M3GAN (2023) AMZN WEB-DL 4K UHD HDR Latino

    2022
    M3GAN (2023) AMZN WEB-DL 4K UHD HDR Latino

    1h 42m 2022

    Descargar M3GAN (2023) AMZN WEB-DL 4K UHD HDR Latino. Cuando Gemma se convierte en la cuidadora de su...

    Director: Stephen W. Moore

    Género: 4K HDR

    Actores: Violet McGraw

  • M3GAN (2022) MA WEB-DL 1080p Latino

    M3GAN (2022) MA WEB-DL 1080p Latino

    2022
    M3GAN (2022) MA WEB-DL 1080p Latino

    1h 42m 2022

    Descargar M3GAN (2022) MA WEB-DL 1080p Latino. Cuando Gemma se convierte en la cuidadora de su sobrina...

    Director: Stephen W. Moore

    Género: Ciencia ficción

    Actores: Violet McGraw

  • Mar de sangre (2022) WEB-DL 1080p Latino

    Mar de sangre (2022) WEB-DL 1080p Latino

    2022
    Mar de sangre (2022) WEB-DL 1080p Latino

    1h 27m 2022

    Descargar Mar de sangre (2022) WEB-DL 1080p Latino. Un grupo de amigos que disfrutan de un fin de semana...

    Director: James Nunn

    Género: Acción

    Actores: Thomas Michael Flynn

descargar Deep Blue Sea 3 (2020) WEB-DL 1080p Latino WEBDL 1080p gratis, Deep Blue Sea 3 (2020) WEB-DL 1080p Latino WEBDL mega 1 link, Deep Blue Sea 3 (2020) WEB-DL 1080p Latino WEBDL pelicula completa, descargar Deep Blue Sea 3 (2020) WEB-DL 1080p Latino WEBDL gratis en mega.

Deep Blue Sea 3 (2020) WEB-DL 1080p Latino pelicula full hd, Deep Blue Sea 3 (2020) WEB-DL 1080p Latino mega latino, Deep Blue Sea 3 (2020) WEB-DL 1080p Latino 4k latino, Deep Blue Sea 3 (2020) WEB-DL 1080p Latino pelicula completa, Deep Blue Sea 3 (2020) WEB-DL 1080p Latino descargar gratis, descargar Deep Blue Sea 3 (2020) WEB-DL 1080p Latino pelicula latino, Deep Blue Sea 3 (2020) WEB-DL 1080p Latino 1 link mega, Deep Blue Sea 3 (2020) WEB-DL 1080p Latino 1 link google drive, Deep Blue Sea 3 (2020) WEB-DL 1080p Latino hd 1080p latino.
Comentarios 2