×

¿Problemas para descargar con Mozilla, EDGE? Deshabilita la opción "Abrir vinculos en una pestaña nueva" tal como lo muestra ésta imagen.

Alerta en lo Profundo 3 (2020) HD 1080p Latino

362 vistas

Información de Alerta en lo Profundo 3 (2020) HD 1080p Latino

Datos de la película

  • Calidad: 1080p
  • Audio: Español Latino AC3 5.1 iTUNES - Ingles AC3 5.1 BLURAY
  • Subtitulos: Español Latino SRT - Ingles SRT
  • Resolución: 1920x800p
  • Formato: MKV
  • Codec: H.264
  • Encoder: Melkor
  • Mediainfo: Clic para Mostrar Datos Ver
  • Alerta En Lo Profundo 3 (2020) HD 1080p Latino-CMHDD.mkv
    Format                      : Matroska
    Format version              : Version 4
    File size                   : 2.93 GiB
    Duration                    : 1 h 40 min
    Overall bit rate            : 4 191 kb/s
    Movie name                  : Deep Blue Sea 3 (2020) CinemaniaHDD.Net
    Encoded date                : UTC 2020-07-30 05:29:04
    Writing application         : mkvmerge v46.0.0 ('No Deeper Escape') 64-bit
    Writing library             : libebml v1.3.10 + libmatroska v1.5.2
    Attachments                 : CINEMANIAHD.png

    Video
    ID                          : 1
    Format                      : AVC
    Format/Info                 : Advanced Video Codec
    Format profile              : High@L4.1
    Format settings             : CABAC / 5 Ref Frames
    Format settings, CABAC      : Yes
    Format settings, Reference  : 5 frames
    Codec ID                    : V_MPEG4/ISO/AVC
    Duration                    : 1 h 40 min
    Bit rate                    : 3 500 kb/s
    Width                       : 1 920 pixels
    Height                      : 800 pixels
    Display aspect ratio        : 2.40:1
    Frame rate mode             : Constant
    Frame rate                  : 23.976 (24000/1001) FPS
    Color space                 : YUV
    Chroma subsampling          : 4:2:0
    Bit depth                   : 8 bits
    Scan type                   : Progressive
    Bits/(Pixel*Frame)          : 0.095
    Stream size                 : 2.35 GiB (80%)
    Title                       : HD1080p [CinemaniaHDD]
    Writing library             : x264 core 157 r2935 545de2f
    Encoding settings           : cabac=1 / ref=5 / deblock=1:-1:-1 / analyse=0x3:0x113 / me=hex / subme=8 / psy=1 / psy_rd=1.00:0.15 / mixed_ref=1 / me_range=16 / chroma_me=1 / trellis=2 / 8x8dct=1 / cqm=0 / deadzone=21,11 / fast_pskip=1 / chroma_qp_offset=-3 / threads=24 / lookahead_threads=4 / sliced_threads=0 / nr=0 / decimate=1 / interlaced=0 / bluray_compat=0 / constrained_intra=0 / bframes=3 / b_pyramid=2 / b_adapt=1 / b_bias=0 / direct=3 / weightb=1 / open_gop=0 / weightp=2 / keyint=240 / keyint_min=24 / scenecut=40 / intra_refresh=0 / rc_lookahead=50 / rc=abr / mbtree=1 / bitrate=3500 / ratetol=1.0 / qcomp=0.60 / qpmin=0 / qpmax=69 / qpstep=4 / vbv_maxrate=62500 / vbv_bufsize=78125 / nal_hrd=none / filler=0 / ip_ratio=1.40 / aq=1:1.00
    Default                     : Yes
    Forced                      : No
    Color range                 : Limited
    Color primaries             : BT.709
    Transfer characteristics    : BT.709
    Matrix coefficients         : BT.709

    Audio #1
    ID                          : 2
    Format                      : AC-3
    Format/Info                 : Audio Coding 3
    Commercial name             : Dolby Digital
    Codec ID                    : A_AC3
    Duration                    : 1 h 40 min
    Bit rate mode               : Constant
    Bit rate                    : 384 kb/s
    Channel(s)                  : 6 channels
    Channel layout              : L R C LFE Ls Rs
    Sampling rate               : 48.0 kHz
    Frame rate                  : 31.250 FPS (1536 SPF)
    Compression mode            : Lossy
    Delay relative to video     : 3 s 662 ms
    Stream size                 : 275 MiB (9%)
    Title                       : Español Latino [CinemaniaHDD]
    Language                    : Spanish
    Service kind                : Complete Main
    Default                     : Yes
    Forced                      : No

    Audio #2
    ID                          : 3
    Format                      : AC-3
    Format/Info                 : Audio Coding 3
    Commercial name             : Dolby Digital
    Codec ID                    : A_AC3
    Duration                    : 1 h 40 min
    Bit rate mode               : Constant
    Bit rate                    : 448 kb/s
    Channel(s)                  : 6 channels
    Channel layout              : L R C LFE Ls Rs
    Sampling rate               : 48.0 kHz
    Frame rate                  : 31.250 FPS (1536 SPF)
    Compression mode            : Lossy
    Delay relative to video     : -5 ms
    Stream size                 : 321 MiB (11%)
    Title                       : Ingles [CinemaniaHDD]
    Language                    : English
    Service kind                : Complete Main
    Default                     : No
    Forced                      : No

    Text #1
    ID                          : 4
    Format                      : UTF-8
    Codec ID                    : S_TEXT/UTF8
    Codec ID/Info               : UTF-8 Plain Text
    Duration                    : 57 min 41 s
    Bit rate                    : 0 b/s
    Count of elements           : 2
    Stream size                 : 59.0 Bytes (0%)
    Title                       : Forzados-SRT [CinemaniaHDD]
    Language                    : Spanish
    Default                     : Yes
    Forced                      : Yes

    Text #2
    ID                          : 5
    Format                      : UTF-8
    Codec ID                    : S_TEXT/UTF8
    Codec ID/Info               : UTF-8 Plain Text
    Duration                    : 1 h 38 min
    Bit rate                    : 47 b/s
    Count of elements           : 1045
    Stream size                 : 34.5 KiB (0%)
    Title                       : Español-SRT [CinemaniaHDD]
    Language                    : Spanish
    Default                     : No
    Forced                      : No

    Text #3
    ID                          : 6
    Format                      : UTF-8
    Codec ID                    : S_TEXT/UTF8
    Codec ID/Info               : UTF-8 Plain Text
    Duration                    : 1 h 33 min
    Bit rate                    : 49 b/s
    Count of elements           : 1083
    Stream size                 : 34.0 KiB (0%)
    Title                       : Ingles-SRT [CinemaniaHDD]
    Language                    : English
    Default                     : No
    Forced                      : No

    Menu
    00:00:00.000                : :Chapter 1
    00:09:50.006                : :Chapter 2
    00:19:15.154                : :Chapter 3
    00:28:50.270                : :Chapter 4
    00:38:06.034                : :Chapter 5
    00:45:09.290                : :Chapter 6
    00:54:28.891                : :Chapter 7
    01:04:14.142                : :Chapter 8
    01:14:12.406                : :Chapter 9
    01:23:10.819                : :Chapter 10
    01:32:48.229                : :Chapter 11

  • Peso: 2.93 GiB

Sinopsis

Descargar Alerta en lo Profundo 3 (2020) HD 1080p Latino. La doctora Emma Collins y su equipo están pasando su tercer verano en la isla Little Happy estudiando el efecto del cambio climático en el gran tiburón blanco. Junto a los dos últimos habitantes del antiguo pueblo pesquero, su vida se ve alterada cuando un equipo «científico» liderado por su exnovio y marino biológico Richard aparece buscando tres tiburones toro que son algo más de lo que aparentan en un principio.

Ficha técnica

Video trailer de la película

Enlaces de descarga

Rip de Bluray

Descargar Alerta en lo Profundo 3 (2020) HD 1080p Latino




Aportes de DPeliculasHDmega la pass es:dpeliculashdmega.org Aportes de CinemaniaHD la pass es:cinemaniahdd.com

Películas relacionadas

descargar Alerta en lo Profundo 3 (2020) HD 1080p Latino 1080p 1080p gratis, Alerta en lo Profundo 3 (2020) HD 1080p Latino 1080p mega 1 link, Alerta en lo Profundo 3 (2020) HD 1080p Latino 1080p pelicula completa, descargar Alerta en lo Profundo 3 (2020) HD 1080p Latino 1080p gratis en mega.

Alerta en lo Profundo 3 (2020) HD 1080p Latino pelicula full hd, Alerta en lo Profundo 3 (2020) HD 1080p Latino mega latino, Alerta en lo Profundo 3 (2020) HD 1080p Latino 4k latino, Alerta en lo Profundo 3 (2020) HD 1080p Latino pelicula completa, Alerta en lo Profundo 3 (2020) HD 1080p Latino descargar gratis, descargar Alerta en lo Profundo 3 (2020) HD 1080p Latino pelicula latino, Alerta en lo Profundo 3 (2020) HD 1080p Latino 1 link mega, Alerta en lo Profundo 3 (2020) HD 1080p Latino 1 link google drive, Alerta en lo Profundo 3 (2020) HD 1080p Latino hd 1080p latino.
Comentarios 0