×

¿Problemas para descargar con Mozilla, EDGE? Deshabilita la opción "Abrir vinculos en una pestaña nueva" tal como lo muestra ésta imagen.

Dedicada a mi Ex (2019) WEB-DL 1080p Latino

1.193 vistas

Información de Dedicada a mi Ex (2019) WEB-DL 1080p Latino

Datos de la película

  • Calidad: WEBDL
  • Audio: Español Latino AC3 2.0 ClaroVideo
  • Subtitulos: Español Latino SRT
  • Resolución: 1920x1080
  • Formato: MKV
  • Codec: H.264
  • Encoder: cinemaniahdd
  • Mediainfo: Clic para Mostrar Datos Ver
  • Dedicada a mi Ex (2019) WEB-DL 1080p Latino.mkv
    Format                      : Matroska
    Format version              : Version 4
    File size                   : 2.70 GiB
    Duration                    : 1 h 34 min
    Overall bit rate            : 4 107 kb/s
    Movie name                  : Dedicada a mi Ex (2019) - CinemaniaHDD.Net
    Encoded date                : UTC 2020-02-19 23:25:26
    Writing application         : mkvmerge v42.0.0 ('Overtime') 64-bit
    Writing library             : libebml v1.3.10 + libmatroska v1.5.2

    Video
    ID                          : 1
    Format                      : AVC
    Format/Info                 : Advanced Video Codec
    Format profile              : High@L4
    Format settings             : CABAC / 2 Ref Frames
    Format settings, CABAC      : Yes
    Format settings, ReFrames   : 2 frames
    Format settings, GOP        : M=1, N=60
    Codec ID                    : V_MPEG4/ISO/AVC
    Duration                    : 1 h 34 min
    Bit rate mode               : Constant
    Bit rate                    : 4 000 kb/s
    Width                       : 1 920 pixels
    Height                      : 1 080 pixels
    Display aspect ratio        : 16:9
    Frame rate mode             : Constant
    Frame rate                  : 23.976 (24000/1001) FPS
    Color space                 : YUV
    Chroma subsampling          : 4:2:0
    Bit depth                   : 8 bits
    Scan type                   : Progressive
    Bits/(Pixel*Frame)          : 0.080
    Stream size                 : 2.53 GiB (94%)
    Title                       : CinemaniaHDD
    Default                     : Yes
    Forced                      : No
    Color range                 : Limited
    Color primaries             : BT.709
    Transfer characteristics    : BT.709
    Matrix coefficients         : BT.709

    Audio
    ID                          : 2
    Format                      : AC-3
    Format/Info                 : Audio Coding 3
    Commercial name             : Dolby Digital
    Codec ID                    : A_AC3
    Duration                    : 1 h 34 min
    Bit rate mode               : Constant
    Bit rate                    : 256 kb/s
    Channel(s)                  : 2 channels
    Channel layout              : L R
    Sampling rate               : 48.0 kHz
    Frame rate                  : 31.250 FPS (1536 SPF)
    Bit depth                   : 16 bits
    Compression mode            : Lossy
    Stream size                 : 172 MiB (6%)
    Title                       : Español latino [CinemaniaHDD]
    Language                    : Spanish
    Service kind                : Complete Main
    Default                     : Yes
    Forced                      : No

    Text
    ID                          : 3
    Format                      : UTF-8
    Codec ID                    : S_TEXT/UTF8
    Codec ID/Info               : UTF-8 Plain Text
    Duration                    : 1 h 31 min
    Bit rate                    : 83 b/s
    Count of elements           : 1564
    Stream size                 : 56.3 KiB (0%)
    Title                       : Portugués [CinemaniaHDD]
    Language                    : Portuguese
    Default                     : No
    Forced                      : No

     

  • Peso: 2.70 GiB

Sinopsis

La película cuenta la historia de Ariel, un joven de 21 años que decide formar una banda de rock para competir por un premio de diez mil dólares en un concurso de bandas musicales, esta es la última opción cuando intenta obtener dinero para salvar su relación. y se reúne con su ex novia, que se rompe debido al viaje que debe hacer a Finlandia para una pasantía. Ariel con su amiga Ortega, decide hacer un casting para encontrar a los otros miembros de la banda, aunque no saben nada de música, formando así una banda con miembros que tienen personalidades diversas y opuestas.

Ficha técnica

  • Titulo original: Dedicada a mi ex
  • Fecha de lanzamiento: 01-11-2019 (Colombia, Ecuador, United States of America)
  • Director: Jorge Ulloa
  • Género: Comedia, Drama

Video trailer de la película

Enlaces de descarga

Rip de Bluray

Descargar Dedicada a mi Ex (2019) WEB-DL 1080p Latino




Aportes de DPeliculasHDmega la pass es:dpeliculashdmega.org Aportes de CinemaniaHD la pass es:cinemaniahdd.com
Guardado en : Comedia , Drama

Películas relacionadas

descargar Dedicada a mi Ex (2019) WEB-DL 1080p Latino WEBDL 1080p gratis, Dedicada a mi Ex (2019) WEB-DL 1080p Latino WEBDL mega 1 link, Dedicada a mi Ex (2019) WEB-DL 1080p Latino WEBDL pelicula completa, descargar Dedicada a mi Ex (2019) WEB-DL 1080p Latino WEBDL gratis en mega.

Dedicada a mi Ex (2019) WEB-DL 1080p Latino pelicula full hd, Dedicada a mi Ex (2019) WEB-DL 1080p Latino mega latino, Dedicada a mi Ex (2019) WEB-DL 1080p Latino 4k latino, Dedicada a mi Ex (2019) WEB-DL 1080p Latino pelicula completa, Dedicada a mi Ex (2019) WEB-DL 1080p Latino descargar gratis, descargar Dedicada a mi Ex (2019) WEB-DL 1080p Latino pelicula latino, Dedicada a mi Ex (2019) WEB-DL 1080p Latino 1 link mega, Dedicada a mi Ex (2019) WEB-DL 1080p Latino 1 link google drive, Dedicada a mi Ex (2019) WEB-DL 1080p Latino hd 1080p latino.
Comentarios 0