×

¿Problemas para descargar con Mozilla, EDGE? Deshabilita la opción "Abrir vinculos en una pestaña nueva" tal como lo muestra ésta imagen.

Una navidad muy prendida (2006) 1080p Latino

347 vistas

Información de Una navidad muy prendida (2006) 1080p Latino

Datos de la película

  • Calidad: 1080p
  • Audio: Español Latino AC3 5.1 BLURAY - Ingles AC3 5.1 BLURAY
  • Subtitulos: Español Latino SRT - Ingles SRT
  • Resolución: 1920x1040p
  • Formato: MKV
  • Codec: H.264
  • Encoder: CinefiloCool
  • Mediainfo: Clic para Mostrar Datos Ver
  • Una Navidad Muy Prendida (2006) 1080p Latino-CMHDD.mkv
    Format                      : Matroska
    Format version              : Version 4
    File size                   : 4.09 GiB
    Duration                    : 1 h 32 min
    Overall bit rate mode       : Variable
    Overall bit rate            : 6 296 kb/s
    Movie name                  : Deck the Halls (2006) CinemaniaHDD.Net
    Encoded date                : UTC 2023-02-15 16:05:01
    Writing application         : mkvmerge v56.1.0 ('My Friend') 64-bit
    Writing library             : libebml v1.4.2 + libmatroska v1.6.4
    Attachments                 : CINEMANIAHD.png

    Video
    ID                          : 1
    Format                      : AVC
    Format/Info                 : Advanced Video Codec
    Format profile              : High@L4.2
    Format settings             : CABAC / 4 Ref Frames
    Format settings, CABAC      : Yes
    Format settings, Reference  : 4 frames
    Codec ID                    : V_MPEG4/ISO/AVC
    Duration                    : 1 h 32 min
    Bit rate mode               : Variable
    Bit rate                    : 5 398 kb/s
    Width                       : 1 920 pixels
    Height                      : 1 040 pixels
    Display aspect ratio        : 1.85:1
    Frame rate mode             : Constant
    Frame rate                  : 23.976 (24000/1001) FPS
    Color space                 : YUV
    Chroma subsampling          : 4:2:0
    Bit depth                   : 8 bits
    Scan type                   : Progressive
    Bits/(Pixel*Frame)          : 0.113
    Stream size                 : 3.51 GiB (86%)
    Title                       : HD1080p [CinemaniaHDD]
    Writing library             : x264 core 163 r3059 b684ebe0
    Encoding settings           : cabac=1 / ref=4 / deblock=1:-2:-2 / analyse=0x3:0x133 / me=umh / subme=9 / psy=1 / psy_rd=1.00:0.25 / mixed_ref=1 / me_range=16 / chroma_me=1 / trellis=2 / 8x8dct=1 / cqm=0 / deadzone=6,6 / fast_pskip=1 / chroma_qp_offset=-4 / threads=24 / lookahead_threads=2 / sliced_threads=0 / nr=0 / decimate=0 / interlaced=0 / bluray_compat=0 / constrained_intra=0 / bframes=3 / b_pyramid=2 / b_adapt=2 / b_bias=0 / direct=3 / weightb=1 / open_gop=0 / weightp=2 / keyint=240 / keyint_min=24 / scenecut=40 / intra_refresh=0 / rc_lookahead=60 / rc=crf / mbtree=1 / crf=22.5 / qcomp=0.80 / qpmin=0 / qpmax=69 / qpstep=4 / vbv_maxrate=62500 / vbv_bufsize=78125 / crf_max=0.0 / nal_hrd=vbr / filler=0 / ip_ratio=1.10 / aq=1:0.50
    Default                     : Yes
    Forced                      : Yes
    Color range                 : Limited
    Color primaries             : BT.709
    Transfer characteristics    : BT.709
    Matrix coefficients         : BT.709

    Audio #1
    ID                          : 2
    ID in the original source m : 4353 (0x1101)
    Format                      : AC-3
    Format/Info                 : Audio Coding 3
    Commercial name             : Dolby Digital
    Codec ID                    : A_AC3
    Duration                    : 1 h 32 min
    Bit rate mode               : Constant
    Bit rate                    : 448 kb/s
    Channel(s)                  : 6 channels
    Channel layout              : L R C LFE Ls Rs
    Sampling rate               : 48.0 kHz
    Frame rate                  : 31.250 FPS (1536 SPF)
    Compression mode            : Lossy
    Delay relative to video     : -5 ms
    Stream size                 : 298 MiB (7%)
    Title                       : Español Latino [CinemaniaHDD]
    Language                    : Spanish
    Service kind                : Complete Main
    Default                     : Yes
    Forced                      : Yes
    Original source medium      : Blu-ray

    Audio #2
    ID                          : 3
    Format                      : AC-3
    Format/Info                 : Audio Coding 3
    Commercial name             : Dolby Digital
    Codec ID                    : A_AC3
    Duration                    : 1 h 32 min
    Bit rate mode               : Constant
    Bit rate                    : 448 kb/s
    Channel(s)                  : 6 channels
    Channel layout              : L R C LFE Ls Rs
    Sampling rate               : 48.0 kHz
    Frame rate                  : 31.250 FPS (1536 SPF)
    Compression mode            : Lossy
    Delay relative to video     : -5 ms
    Stream size                 : 298 MiB (7%)
    Title                       : Ingles [CinemaniaHDD]
    Language                    : English
    Service kind                : Complete Main
    Default                     : No
    Forced                      : No

    Text #1
    ID                          : 4
    Format                      : UTF-8
    Codec ID                    : S_TEXT/UTF8
    Codec ID/Info               : UTF-8 Plain Text
    Duration                    : 1 h 24 min
    Bit rate                    : 0 b/s
    Count of elements           : 28
    Stream size                 : 492 Bytes (0%)
    Title                       : Forzados-SRT [CinemaniaHDD]
    Language                    : Spanish
    Default                     : Yes
    Forced                      : Yes

    Text #2
    ID                          : 5
    Format                      : UTF-8
    Codec ID                    : S_TEXT/UTF8
    Codec ID/Info               : UTF-8 Plain Text
    Duration                    : 1 h 28 min
    Bit rate                    : 71 b/s
    Count of elements           : 1323
    Stream size                 : 45.8 KiB (0%)
    Title                       : Español-SRT [CinemaniaHDD]
    Language                    : Spanish
    Default                     : No
    Forced                      : No

    Text #3
    ID                          : 6
    Format                      : UTF-8
    Codec ID                    : S_TEXT/UTF8
    Codec ID/Info               : UTF-8 Plain Text
    Duration                    : 1 h 32 min
    Bit rate                    : 77 b/s
    Count of elements           : 1731
    Stream size                 : 52.1 KiB (0%)
    Title                       : Ingles-SRT [CinemaniaHDD]
    Language                    : English
    Default                     : No
    Forced                      : No

    Menu
    00:00:00.000                : Chapter 01
    00:03:32.253                : Chapter 02
    00:07:26.696                : Chapter 03
    00:11:39.615                : Chapter 04
    00:16:58.517                : Chapter 05
    00:20:17.174                : Chapter 06
    00:25:20.352                : Chapter 07
    00:31:07.407                : Chapter 08
    00:37:40.383                : Chapter 09
    00:41:15.890                : Chapter 10
    00:48:14.516                : Chapter 11
    00:54:48.451                : Chapter 12
    00:58:26.461                : Chapter 13
    01:02:09.142                : Chapter 14
    01:04:20.606                : Chapter 15
    01:08:11.921                : Chapter 16
    01:12:03.694                : Chapter 17
    01:17:01.783                : Chapter 18
    01:22:21.186                : Chapter 19
    01:27:51.266                : Chapter 20

  • Peso: 4.09 GiB

Sinopsis

Descargar Una navidad muy prendida (2006) 1080p Latino. Para Steve Finch (Matthew Broderick), un optometrista de Massachussetts, la mejor época del año es la Navidad. Durante muchos años, ha conservado tradiciones que su mujer y sus hijos ya no pueden soportar. A pesar de ello, sigue teniendo un calendario del mes de diciembre repleto de actividades: la foto para la felicitación navideña, el ritual del árbol, los villancicos… Pero la felicidad de Steve se ve perturbada de repente por Buddy Hall (Danny DeVito), un astuto vendedor de coches que se instala en la casa de al lado.

Ficha técnica

Video trailer de la película

Enlaces de descarga

Rip de Bluray

Descargar Una navidad muy prendida (2006) 1080p Latino




Aportes de DPeliculasHDmega la pass es:dpeliculashdmega.org Aportes de CinemaniaHD la pass es:cinemaniahdd.com Aportes recientes:cinemaniahdd.net
Guardado en : Comedia , Familia , HD 1080p

Películas relacionadas

descargar Una navidad muy prendida (2006) 1080p Latino 1080p 1080p gratis, Una navidad muy prendida (2006) 1080p Latino 1080p mega 1 link, Una navidad muy prendida (2006) 1080p Latino 1080p pelicula completa, descargar Una navidad muy prendida (2006) 1080p Latino 1080p gratis en mega.

Una navidad muy prendida (2006) 1080p Latino pelicula full hd, Una navidad muy prendida (2006) 1080p Latino mega latino, Una navidad muy prendida (2006) 1080p Latino 4k latino, Una navidad muy prendida (2006) 1080p Latino pelicula completa, Una navidad muy prendida (2006) 1080p Latino descargar gratis, descargar Una navidad muy prendida (2006) 1080p Latino pelicula latino, Una navidad muy prendida (2006) 1080p Latino 1 link mega, Una navidad muy prendida (2006) 1080p Latino 1 link google drive, Una navidad muy prendida (2006) 1080p Latino hd 1080p latino.
Comentarios 0