×

¿Problemas para descargar con Mozilla, EDGE? Deshabilita la opción "Abrir vinculos en una pestaña nueva" tal como lo muestra ésta imagen.

Death Warrant (1990) WEB-DL 1080p Latino – CMHDD

88 vistas

Información de Death Warrant (1990) WEB-DL 1080p Latino – CMHDD

Datos de la película

  • Calidad: 1080p
  • Audio: Español Latino AC3 2.0 WEB-DL - Ingles AC3 2.0 WEB-DL
  • Subtitulos: Español Latino SRT- FORZADOS SRT
  • Resolución: 19201040p
  • Formato: MKV
  • Codec: H.264
  • Encoder: Dracarys
  • Mediainfo: Clic para Mostrar Datos Ver
  • Format                      : Matroska
    Format version              : Version 4
    File size                   : 9.25 GiB
    Duration                    : 1 h 29 min
    Overall bit rate            : 14.9 Mb/s
    Movie name                  : Death Warrant (1990) WEB-DL 1080p Latino - CMHDD
    Encoded date                : UTC 2024-01-14 21:21:20
    Writing application         : mkvmerge v47.0.0 ('Black Flag') 64-bit
    Writing library             : libebml v1.3.10 + libmatroska v1.5.2

    Video
    ID                          : 1
    Format                      : AVC
    Format/Info                 : Advanced Video Codec
    Format profile              : High@L4
    Format settings             : CABAC / 4 Ref Frames
    Format settings, CABAC      : Yes
    Format settings, Reference  : 4 frames
    Codec ID                    : V_MPEG4/ISO/AVC
    Duration                    : 1 h 29 min
    Bit rate                    : 14.4 Mb/s
    Width                       : 1 920 pixels
    Height                      : 1 040 pixels
    Display aspect ratio        : 1.85:1
    Frame rate mode             : Constant
    Frame rate                  : 23.976 (24000/1001) FPS
    Color space                 : YUV
    Chroma subsampling          : 4:2:0
    Bit depth                   : 8 bits
    Scan type                   : Progressive
    Bits/(Pixel*Frame)          : 0.301
    Stream size                 : 8.97 GiB (97%)
    Language                    : Spanish
    Default                     : Yes
    Forced                      : Yes
    Color range                 : Limited
    Color primaries             : BT.709
    Transfer characteristics    : BT.709
    Matrix coefficients         : BT.709

    Audio #1
    ID                          : 2
    Format                      : E-AC-3
    Format/Info                 : Enhanced AC-3
    Commercial name             : Dolby Digital Plus
    Codec ID                    : A_EAC3
    Duration                    : 1 h 29 min
    Bit rate mode               : Constant
    Bit rate                    : 224 kb/s
    Channel(s)                  : 2 channels
    Channel layout              : L R
    Sampling rate               : 48.0 kHz
    Frame rate                  : 31.250 FPS (1536 SPF)
    Compression mode            : Lossy
    Stream size                 : 143 MiB (2%)
    Language                    : Spanish
    Service kind                : Complete Main
    Default                     : Yes
    Forced                      : No

    Audio #2
    ID                          : 3
    Format                      : E-AC-3
    Format/Info                 : Enhanced AC-3
    Commercial name             : Dolby Digital Plus
    Codec ID                    : A_EAC3
    Duration                    : 1 h 29 min
    Bit rate mode               : Constant
    Bit rate                    : 224 kb/s
    Channel(s)                  : 2 channels
    Channel layout              : L R
    Sampling rate               : 48.0 kHz
    Frame rate                  : 31.250 FPS (1536 SPF)
    Compression mode            : Lossy
    Stream size                 : 143 MiB (2%)
    Language                    : English
    Service kind                : Complete Main
    Default                     : No
    Forced                      : No

    Text #1
    ID                          : 4
    Format                      : UTF-8
    Codec ID                    : S_TEXT/UTF8
    Codec ID/Info               : UTF-8 Plain Text
    Duration                    : 4 s 922 ms
    Bit rate                    : 27 b/s
    Frame rate                  : 0.203 FPS
    Count of elements           : 1
    Stream size                 : 17.0 Bytes (0%)
    Language                    : Spanish
    Default                     : Yes
    Forced                      : Yes

    Text #2
    ID                          : 5
    Format                      : UTF-8
    Codec ID                    : S_TEXT/UTF8
    Codec ID/Info               : UTF-8 Plain Text
    Duration                    : 1 h 23 min
    Bit rate                    : 32 b/s
    Frame rate                  : 0.131 FPS
    Count of elements           : 651
    Stream size                 : 20.0 KiB (0%)
    Language                    : Spanish
    Default                     : No
    Forced                      : No

     

  • Peso: 9.25 GiB

Sinopsis

Jean Claude Van Damme da vida a un oficial, un astuto detective que investiga a una serie de presos que se encuentran en la penitenciaria de Harrison, haciéndose pasar por uno más de los allí encarcelados. Pero tendrá que intentar escapar de la prisión cuando descubra el sorprendente secreto que se encuentra detrás de los trabajos internos que se llevan a cabo en la cárcel, enfrentándose a cientos de presos realmente brutales, a los guardias corruptos y a un enemigo mortal del pasado que no parará hasta verlo muerto…

Ficha técnica

Video trailer de la película

Enlaces de descarga

Rip de Bluray

Descargar Death Warrant (1990) WEB-DL 1080p Latino – CMHDD




Aportes de DPeliculasHDmega la pass es:dpeliculashdmega.org Aportes de CinemaniaHD la pass es:cinemaniahdd.com Aportes recientes:cinemaniahdd.net
Guardado en : Acción , Crimen , Suspenso

Películas relacionadas

descargar Death Warrant (1990) WEB-DL 1080p Latino – CMHDD 1080p 1080p gratis, Death Warrant (1990) WEB-DL 1080p Latino – CMHDD 1080p mega 1 link, Death Warrant (1990) WEB-DL 1080p Latino – CMHDD 1080p pelicula completa, descargar Death Warrant (1990) WEB-DL 1080p Latino – CMHDD 1080p gratis en mega.

Death Warrant (1990) WEB-DL 1080p Latino – CMHDD pelicula full hd, Death Warrant (1990) WEB-DL 1080p Latino – CMHDD mega latino, Death Warrant (1990) WEB-DL 1080p Latino – CMHDD 4k latino, Death Warrant (1990) WEB-DL 1080p Latino – CMHDD pelicula completa, Death Warrant (1990) WEB-DL 1080p Latino – CMHDD descargar gratis, descargar Death Warrant (1990) WEB-DL 1080p Latino – CMHDD pelicula latino, Death Warrant (1990) WEB-DL 1080p Latino – CMHDD 1 link mega, Death Warrant (1990) WEB-DL 1080p Latino – CMHDD 1 link google drive, Death Warrant (1990) WEB-DL 1080p Latino – CMHDD hd 1080p latino.
Comentarios 0