Death Race 4 Beyond Anarchy (2018) Full 1080p Latino

815 vistas
1 estrella2 estrellas3 estrellas4 estrellas5 estrellas (Ninguna valoración todavía)
Cargando…

Información de Death Race 4 Beyond Anarchy (2018) Full 1080p Latino

Datos de la película

  • Calidad: Full 1080p
  • Audio: Español Latino DTS 5.1 BLURAY - Ingles DTS 5.1 BLURAY
  • Subtitulos: Español Latino PGS - Ingles PGS
  • Resolución: 1920x1080p
  • Formato: MKV
  • Codec: H.264
  • Encoder: Dracarys
  • Mediainfo: Clic para Mostrar Datos Ver
  • Format                                   : Matroska
    Format version                           : Version 4 / Version 2
    File size                                : 7.10 GiB
    Duration                                 : 1 h 50 min
    Overall bit rate                         : 9 159 kb/s
    Movie name                               : CinemaniaHDD.net
    Encoded date                             : UTC 2018-10-17 00:44:55 / UTC 2018-10-11T23:40:06Z
    Writing application                      : mkvmerge v15.0.0 ('Duel with the Devil') 64-bit
    Writing library                          : libebml v1.3.5 + libmatroska v1.4.5 / Lavf57.7.2

    Video
    ID                                       : 1
    Format                                   : AVC
    Format/Info                              : Advanced Video Codec
    Format profile                           : High@L4.1
    Format settings                          : CABAC / 4 Ref Frames
    Format settings, CABAC                   : Yes
    Format settings, RefFrames               : 4 frames
    Codec ID                                 : V_MPEG4/ISO/AVC
    Duration                                 : 1 h 50 min
    Bit rate                                 : 6 700 kb/s
    Width                                    : 1 920 pixels
    Height                                   : 1 080 pixels
    Display aspect ratio                     : 16:9
    Frame rate mode                          : Constant
    Frame rate                               : 23.976 (24000/1001) FPS
    Color space                              : YUV
    Chroma subsampling                       : 4:2:0
    Bit depth                                : 8 bits
    Scan type                                : Progressive
    Bits/(Pixel*Frame)                       : 0.135
    Stream size                              : 5.19 GiB (73%)
    Writing library                          : x264 core 148 r2708 86b7198
    Encoding settings                        : cabac=1 / ref=4 / deblock=1:0:0 / analyse=0x3:0x133 / me=esa / subme=10 / psy=1 / psy_rd=1.00:0.00 / mixed_ref=1 / me_range=24 / chroma_me=1 / trellis=2 / 8x8dct=1 / cqm=0 / deadzone=21,11 / fast_pskip=1 / chroma_qp_offset=-2 / threads=34 / lookahead_threads=5 / sliced_threads=0 / nr=0 / decimate=1 / interlaced=0 / bluray_compat=0 / constrained_intra=0 / bframes=8 / b_pyramid=2 / b_adapt=2 / b_bias=0 / direct=3 / weightb=1 / open_gop=0 / weightp=2 / keyint=240 / keyint_min=24 / scenecut=40 / intra_refresh=0 / rc_lookahead=60 / rc=crf / mbtree=1 / crf=20.0 / qcomp=0.60 / qpmin=0 / qpmax=69 / qpstep=4 / vbv_maxrate=62500 / vbv_bufsize=78125 / crf_max=0.0 / nal_hrd=none / filler=0 / ip_ratio=1.40 / aq=1:1.00
    Language                                 : English
    Default                                  : Yes
    Forced                                   : No
    Color range                              : Limited
    Color primaries                          : BT.709
    Transfer characteristics                 : BT.709
    Matrix coefficients                      : BT.709
    Statistics Tags Issue                    : mkvmerge v15.0.0 ('Duel with the Devil') 64-bit 2018-10-17 00:44:55 / mkvmerge v15.0.0 ('Duel with the Devil') 64-bit 2018-10-17 00:44:55 / UTC 2018-10-11T23:40:06Z
    FromStats_BitRate                        : 6863480
    FromStats_Duration                       : 01:50:58.485000000
    FromStats_FrameCount                     : 159644
    FromStats_StreamSize                     : 5712547806

    Audio #1
    ID                                       : 2
    Format                                   : DTS
    Format/Info                              : Digital Theater Systems
    Mode                                     : 16
    Format settings, Endianness              : Big
    Codec ID                                 : A_DTS
    Duration                                 : 1 h 50 min
    Bit rate mode                            : Constant
    Bit rate                                 : 768 kb/s
    Channel(s)                               : 6 channels
    Channel positions                        : Front: L C R, Side: L R, LFE
    Sampling rate                            : 48.0 kHz
    Frame rate                               : 93.750 FPS (512 SPF)
    Bit depth                                : 24 bits
    Compression mode                         : Lossy
    Stream size                              : 610 MiB (8%)
    Language                                 : Spanish
    Default                                  : Yes
    Forced                                   : No
    Statistics Tags Issue                    : mkvmerge v15.0.0 ('Duel with the Devil') 64-bit 2018-10-17 00:44:55 / mkvmerge v15.0.0 ('Duel with the Devil') 64-bit 2018-10-17 00:44:55 / UTC 2018-10-11T23:40:06Z
    FromStats_BitRate                        : 767999
    FromStats_Duration                       : 01:50:58.475000000
    FromStats_FrameCount                     : 624232
    FromStats_StreamSize                     : 639213568

    Audio #2
    ID                                       : 3
    Format                                   : DTS
    Format/Info                              : Digital Theater Systems
    Mode                                     : 16
    Format settings, Endianness              : Big
    Codec ID                                 : A_DTS
    Duration                                 : 1 h 50 min
    Bit rate mode                            : Constant
    Bit rate                                 : 1 509 kb/s
    Channel(s)                               : 6 channels
    Channel positions                        : Front: L C R, Side: L R, LFE
    Sampling rate                            : 48.0 kHz
    Frame rate                               : 93.750 FPS (512 SPF)
    Bit depth                                : 24 bits
    Compression mode                         : Lossy
    Stream size                              : 1.17 GiB (16%)
    Language                                 : English
    Default                                  : No
    Forced                                   : No
    Statistics Tags Issue                    : mkvmerge v15.0.0 ('Duel with the Devil') 64-bit 2018-10-17 00:44:55 / mkvmerge v15.0.0 ('Duel with the Devil') 64-bit 2018-10-17 00:44:55 / UTC 2018-10-11T23:40:06Z
    FromStats_BitRate                        : 1508999
    FromStats_Duration                       : 01:50:58.475000000
    FromStats_FrameCount                     : 624232
    FromStats_StreamSize                     : 1255954784

    Text #1
    ID                                       : 4
    Format                                   : PGS
    Muxing mode                              : zlib
    Codec ID                                 : S_HDMV/PGS
    Codec ID/Info                            : Picture based subtitle format used on BDs/HD-DVDs
    Language                                 : English
    Default                                  : No
    Forced                                   : No
    Statistics Tags Issue                    : mkvmerge v15.0.0 ('Duel with the Devil') 64-bit 2018-10-17 00:44:55 / mkvmerge v15.0.0 ('Duel with the Devil') 64-bit 2018-10-17 00:44:55 / UTC 2018-10-11T23:40:06Z
    FromStats_BitRate                        : 28191
    FromStats_Duration                       : 01:46:28.924000000
    FromStats_FrameCount                     : 2093
    FromStats_StreamSize                     : 22514344

    Text #2
    ID                                       : 5
    Format                                   : PGS
    Muxing mode                              : zlib
    Codec ID                                 : S_HDMV/PGS
    Codec ID/Info                            : Picture based subtitle format used on BDs/HD-DVDs
    Language                                 : Spanish
    Default                                  : No
    Forced                                   : No
    Statistics Tags Issue                    : mkvmerge v15.0.0 ('Duel with the Devil') 64-bit 2018-10-17 00:44:55 / mkvmerge v15.0.0 ('Duel with the Devil') 64-bit 2018-10-17 00:44:55 / UTC 2018-10-11T23:40:06Z
    FromStats_BitRate                        : 23659
    FromStats_Duration                       : 01:50:27.621000000
    FromStats_FrameCount                     : 1718
    FromStats_StreamSize                     : 19600756

    Text #3
    ID                                       : 6
    Format                                   : PGS
    Muxing mode                              : zlib
    Codec ID                                 : S_HDMV/PGS
    Codec ID/Info                            : Picture based subtitle format used on BDs/HD-DVDs
    Title                                    : Forzados
    Language                                 : Spanish
    Default                                  : Yes
    Forced                                   : Yes
    Statistics Tags Issue                    : mkvmerge v15.0.0 ('Duel with the Devil') 64-bit 2018-10-17 00:44:55 / mkvmerge v15.0.0 ('Duel with the Devil') 64-bit 2018-10-17 00:44:55 / UTC 2018-10-11T23:40:06Z
    FromStats_BitRate                        : 159
    FromStats_Duration                       : 01:40:40.409000000
    FromStats_FrameCount                     : 16
    FromStats_StreamSize                     : 120196

    Menu
    00:00:00.000                             : :Chapter 1
    00:08:12.242                             : :Chapter 2
    00:15:38.438                             : :Chapter 3
    00:20:44.910                             : :Chapter 4
    00:25:46.336                             : :Chapter 5
    00:29:20.968                             : :Chapter 6
    00:35:49.564                             : :Chapter 7
    00:41:29.112                             : :Chapter 8
    00:47:44.403                             : :Chapter 9
    00:52:28.437                             : :Chapter 10
    00:56:38.186                             : :Chapter 11
    01:00:13.443                             : :Chapter 12
    01:07:00.642                             : :Chapter 13
    01:12:50.199                             : :Chapter 14
    01:17:51.834                             : :Chapter 15
    01:21:55.953                             : :Chapter 16
    01:28:38.605                             : :Chapter 17
    01:32:56.488                             : :Chapter 18
    01:38:02.418                             : :Chapter 19
    01:45:55.766                             : :Chapter 20

     

  • Peso: 7.10 GiB

Sinopsis

Danny Trejo regresa como el despiadado corredor de apuestas, Goldberg, en la carrera de muerte más salvaje y sangrienta de la historia. Después de un ataque fallido contra el preso y el legendario conductor, Frankenstein, el especialista en Operaciones Especiales Negro Connor Gibson (McGowan) se infiltra en una prisión federal súper máxima con un objetivo: ingresar en la carrera de la muerte inmoral e ilegal y derribar a Frankenstein. Connor solicita la ayuda de Baltimore Bob (Glover) y Listas (Koehler), y se enamora inesperadamente de la belleza de la camarera, Jane (Marzano). Connor tendrá que luchar por algo más que su vida en este mundo brutal sin guardias, sin reglas, sin rastros y sin miedo.

Ficha técnica

Video trailer de la película

Enlaces de descarga

Rip de Bluray

Descargar Death Race 4 Beyond Anarchy (2018) Full 1080p Latino




Aportes de DPeliculasHDmega la pass es:dpeliculashdmega.org Aportes de CinemaniaHD la pass es:cinemaniahdd.com
Guardado en : Acción , FULL 1080p Plateadas

Películas relacionadas

  • El Justiciero 2 (2018) Full 1080p Latino

    2018
    El Justiciero 2 (2018) Full 1080p Latino

    5.0 2h 0m 2018

    Descargar El Justiciero 2 (2018) Full 1080p Latino, Mega, Google Drive. Robert McCall (Denzel Washington)...

    Director: Donald Sparks

    Género: Acción

    Actores: Wesley Pereira

  • El Justiciero 2 (2018) 1080p Latino

    2018
    El Justiciero 2 (2018) 1080p Latino

    2.5 2h 0m 2018

    Descargar El Justiciero 2 (2018) 1080p Latino, Mega, Google Drive. Robert McCall (Denzel Washington)...

    Director: Donald Sparks

    Género: Acción

    Actores: Wesley Pereira

Comentarios 1
  • ocpgaiden - 17 octubre, 2018

    Gracias por la parte 4 de carrero de la muerte, saludos