×

¿Problemas para descargar con Mozilla, EDGE? Deshabilita la opción "Abrir vinculos en una pestaña nueva" tal como lo muestra ésta imagen.

Death Note (2006-07) [Complete Series] REMUX 1080p Latino – CMHDD

559 vistas

Información de Death Note (2006-07) [Complete Series] REMUX 1080p Latino – CMHDD

Datos de la película

  • Calidad: Full 1080p
  • Audio: Se especifica abajo de la Sinopsis
  • Subtitulos: Español Latino PGS
  • Resolución: 1920x1080p
  • Formato: MKV
  • Codec: H.264
  • Encoder: Dracarys
  • Mediainfo: Clic para Mostrar Datos Ver
  • Format                      : Matroska
    Format version              : Version 4
    File size                   : 4.06 GiB
    Duration                    : 23 min 0 s
    Overall bit rate mode       : Variable
    Overall bit rate            : 25.3 Mb/s
    Movie name                  : Death Note (2007) [Complete Series] E27 REMUX 1080p Latino - CMHDD
    Encoded date                : UTC 2021-03-19 19:45:47
    Writing application         : mkvmerge v51.0.0 ('I Wish') 64-bit
    Writing library             : libebml v1.4.0 + libmatroska v1.6.2

    Video
    ID                          : 1
    Format                      : AVC
    Format/Info                 : Advanced Video Codec
    Format profile              : High@L4.1
    Format settings             : CABAC / 4 Ref Frames
    Format settings, CABAC      : Yes
    Format settings, Reference  : 4 frames
    Codec ID                    : V_MPEG4/ISO/AVC
    Duration                    : 22 min 59 s
    Bit rate mode               : Variable
    Bit rate                    : 20.3 Mb/s
    Maximum bit rate            : 35.0 Mb/s
    Width                       : 1 920 pixels
    Height                      : 1 080 pixels
    Display aspect ratio        : 16:9
    Frame rate mode             : Constant
    Frame rate                  : 23.976 (24000/1001) FPS
    Standard                    : NTSC
    Color space                 : YUV
    Chroma subsampling          : 4:2:0
    Bit depth                   : 8 bits
    Scan type                   : Progressive
    Bits/(Pixel*Frame)          : 0.409
    Stream size                 : 3.27 GiB (81%)
    Default                     : Yes
    Forced                      : No
    Color range                 : Limited
    Color primaries             : BT.709
    Transfer characteristics    : BT.709
    Matrix coefficients         : BT.709

    Audio #1
    ID                          : 2
    Format                      : DTS XLL
    Format/Info                 : Digital Theater Systems
    Commercial name             : DTS-HD Master Audio
    Codec ID                    : A_DTS
    Duration                    : 23 min 0 s
    Bit rate mode               : Variable
    Bit rate                    : 1 642 kb/s
    Channel(s)                  : 2 channels
    Channel layout              : L R
    Sampling rate               : 48.0 kHz
    Frame rate                  : 93.750 FPS (512 SPF)
    Bit depth                   : 16 bits
    Compression mode            : Lossless
    Stream size                 : 270 MiB (7%)
    Language                    : Spanish
    Default                     : Yes
    Forced                      : No

    Audio #2
    ID                          : 3
    Format                      : DTS XLL
    Format/Info                 : Digital Theater Systems
    Commercial name             : DTS-HD Master Audio
    Codec ID                    : A_DTS
    Duration                    : 23 min 0 s
    Bit rate mode               : Variable
    Bit rate                    : 1 578 kb/s
    Channel(s)                  : 2 channels
    Channel layout              : L R
    Sampling rate               : 48.0 kHz
    Frame rate                  : 93.750 FPS (512 SPF)
    Bit depth                   : 16 bits
    Compression mode            : Lossless
    Stream size                 : 260 MiB (6%)
    Language                    : English
    Default                     : No
    Forced                      : No

    Audio #3
    ID                          : 4
    Format                      : DTS XLL
    Format/Info                 : Digital Theater Systems
    Commercial name             : DTS-HD Master Audio
    Codec ID                    : A_DTS
    Duration                    : 23 min 0 s
    Bit rate mode               : Variable
    Bit rate                    : 1 667 kb/s
    Channel(s)                  : 2 channels
    Channel layout              : L R
    Sampling rate               : 48.0 kHz
    Frame rate                  : 93.750 FPS (512 SPF)
    Bit depth                   : 16 bits
    Compression mode            : Lossless
    Stream size                 : 274 MiB (7%)
    Language                    : Japanese
    Default                     : No
    Forced                      : No

    Text
    ID                          : 5
    Format                      : PGS
    Muxing mode                 : zlib
    Codec ID                    : S_HDMV/PGS
    Codec ID/Info               : Picture based subtitle format used on BDs/HD-DVDs
    Duration                    : 22 min 32 s
    Bit rate                    : 45.1 kb/s
    Count of elements           : 776
    Stream size                 : 7.28 MiB (0%)
    Language                    : Spanish
    Default                     : Yes
    Forced                      : No

  • Peso: 134 GiB Total

Sinopsis

Serie de TV (2006-2007). 37 episodios. Death Note cuenta la historia sobre un joven llamado Yagami Light. Un aburrido día de clase ve caer un cuaderno negro en el patio de su escuela, titulado Death Note. Según las instrucciones escritas en el mismo cuaderno, aquella persona cuyo nombre sea escrito en dicho cuaderno, morirá. En un principio se cree que es una de esas estúpidas cadenas… pero “Kira”, como será reconocido por las masas, prueba el Death Note… y efectivamente, funciona. Light decide usar el cuaderno desde el anonimato, para limpiar el mundo de todos los criminales que merezcan morir, reinando así la paz y la tranquilidad. Todas las fuerzas de protección internacional están en alerta, pero la Interpol tiene un as en la manga: L, un detective de identidad oculta que ha logrado solucionar casos que se daban por irresolubles. ¿Que pasara con Light y ambicioso proyecto? ¿Podrá L desenmascararle?

 

Latino: DTS-HD MA 1642 kb/s 2.0

Ingles: DTS-HD MA 1578 kb/s 2.0

Japones: DTS-HD MA 1667 kb/s 2.0

Ficha técnica

  • Titulo original: DEATH NOTE
  • Fecha de lanzamiento: 04-10-2006 (JP)
  • Género: Animación, Misterio

Video trailer de la película

Enlaces de descarga

Rip de Bluray

Descargar Death Note (2006-07) [Complete Series] REMUX 1080p Latino – CMHDD


Aportes de DPeliculasHDmega la pass es:dpeliculashdmega.org Aportes de CinemaniaHD la pass es:cinemaniahdd.com
Guardado en : Animación , Misterio

Películas relacionadas

descargar Death Note (2006-07) [Complete Series] REMUX 1080p Latino – CMHDD Full 1080p 1080p gratis, Death Note (2006-07) [Complete Series] REMUX 1080p Latino – CMHDD Full 1080p mega 1 link, Death Note (2006-07) [Complete Series] REMUX 1080p Latino – CMHDD Full 1080p pelicula completa, descargar Death Note (2006-07) [Complete Series] REMUX 1080p Latino – CMHDD Full 1080p gratis en mega.

Death Note (2006-07) [Complete Series] REMUX 1080p Latino – CMHDD pelicula full hd, Death Note (2006-07) [Complete Series] REMUX 1080p Latino – CMHDD mega latino, Death Note (2006-07) [Complete Series] REMUX 1080p Latino – CMHDD 4k latino, Death Note (2006-07) [Complete Series] REMUX 1080p Latino – CMHDD pelicula completa, Death Note (2006-07) [Complete Series] REMUX 1080p Latino – CMHDD descargar gratis, descargar Death Note (2006-07) [Complete Series] REMUX 1080p Latino – CMHDD pelicula latino, Death Note (2006-07) [Complete Series] REMUX 1080p Latino – CMHDD 1 link mega, Death Note (2006-07) [Complete Series] REMUX 1080p Latino – CMHDD 1 link google drive, Death Note (2006-07) [Complete Series] REMUX 1080p Latino – CMHDD hd 1080p latino.
Comentarios 2
  • Nahuel - 23 marzo, 2021

    Versión publica va a haber?

    • Dracarys - 23 marzo, 2021

      solo para VIP