Dear Zindagi (2016) 1080p Latino

493 vistas
1 estrella2 estrellas3 estrellas4 estrellas5 estrellas (1 votos, promedio: 5,00 de 5)
Cargando…

Información de Dear Zindagi (2016) 1080p Latino

Datos de la película

  • Calidad: 1080p
  • Audio: Se especifica abajo de la Sinopsis
  • Subtitulos: Español Latino SRT- FORZADOS SRT
  • Resolución: 1920x808
  • Formato: MKV
  • Codec: H.264
  • Encoder: cinemnaihdd
  • Mediainfo: Clic para Mostrar Datos Ver
  • Dear Zindagi (2016) 1080p Latino.mkv
    Format                      : Matroska
    Format version              : Version 4
    File size                   : 4.37 GiB
    Duration                    : 2 h 29 min
    Overall bit rate            : 4 175 kb/s
    Movie name                  : CinemaniaHDD.Net
    Encoded date                : UTC 2019-04-11 03:50:56
    Writing application         : mkvmerge v22.0.0 ('At The End Of The World') 64-bit
    Writing library             : libebml v1.3.5 + libmatroska v1.4.8

    Video
    ID                          : 1
    Format                      : AVC
    Format/Info                 : Advanced Video Codec
    Format profile              : [email protected]
    Format settings             : CABAC / 5 Ref Frames
    Format settings, CABAC      : Yes
    Format settings, ReFrames   : 5 frames
    Codec ID                    : V_MPEG4/ISO/AVC
    Duration                    : 2 h 29 min
    Bit rate                    : 3 500 kb/s
    Width                       : 1 920 pixels
    Height                      : 804 pixels
    Display aspect ratio        : 2.40:1
    Frame rate mode             : Constant
    Frame rate                  : 24.000 FPS
    Color space                 : YUV
    Chroma subsampling          : 4:2:0
    Bit depth                   : 8 bits
    Scan type                   : Progressive
    Bits/(Pixel*Frame)          : 0.094
    Stream size                 : 3.63 GiB (83%)
    Title                       : CinemaniaHDD.Net
    Writing library             : x264 core 157 r2935 545de2f
    Encoding settings           : cabac=1 / ref=5 / deblock=1:0:0 / analyse=0x1:0x131 / me=umh / subme=9 / psy=1 / psy_rd=1.00:0.00 / mixed_ref=1 / me_range=16 / chroma_me=1 / trellis=2 / 8x8dct=0 / cqm=0 / deadzone=21,11 / fast_pskip=1 / chroma_qp_offset=-2 / threads=25 / lookahead_threads=2 / sliced_threads=0 / nr=0 / decimate=1 / interlaced=0 / bluray_compat=0 / constrained_intra=0 / bframes=3 / b_pyramid=2 / b_adapt=2 / b_bias=0 / direct=3 / weightb=1 / open_gop=0 / weightp=2 / keyint=240 / keyint_min=24 / scenecut=40 / intra_refresh=0 / rc_lookahead=60 / rc=abr / mbtree=1 / bitrate=3500 / ratetol=1.0 / qcomp=0.60 / qpmin=0 / qpmax=69 / qpstep=4 / vbv_maxrate=20000 / vbv_bufsize=25000 / nal_hrd=none / filler=0 / ip_ratio=1.40 / aq=1:1.00
    Default                     : Yes
    Forced                      : No
    Color range                 : Limited
    Color primaries             : BT.709
    Transfer characteristics    : BT.709
    Matrix coefficients         : BT.709

    Audio #1
    ID                          : 2
    Format                      : AC-3
    Format/Info                 : Audio Coding 3
    Commercial name             : Dolby Digital
    Codec ID                    : A_AC3
    Duration                    : 2 h 29 min
    Bit rate mode               : Constant
    Bit rate                    : 256 kb/s
    Channel(s)                  : 2 channels
    Channel layout              : L R
    Sampling rate               : 48.0 kHz
    Frame rate                  : 31.250 FPS (1536 SPF)
    Bit depth                   : 16 bits
    Compression mode            : Lossy
    Delay relative to video     : -5 ms
    Stream size                 : 274 MiB (6%)
    Title                       : CinemaniaHDD.Net
    Language                    : Spanish
    Service kind                : Complete Main
    Default                     : Yes
    Forced                      : No

    Audio #2
    ID                          : 3
    Format                      : AC-3
    Format/Info                 : Audio Coding 3
    Commercial name             : Dolby Digital
    Codec ID                    : A_AC3
    Duration                    : 2 h 29 min
    Bit rate mode               : Constant
    Bit rate                    : 448 kb/s
    Channel(s)                  : 6 channels
    Channel layout              : L R C LFE Ls Rs
    Sampling rate               : 48.0 kHz
    Frame rate                  : 31.250 FPS (1536 SPF)
    Bit depth                   : 16 bits
    Compression mode            : Lossy
    Delay relative to video     : -5 ms
    Stream size                 : 480 MiB (11%)
    Title                       : CinemaniaHDD.Net
    Language                    : Hindi
    Service kind                : Complete Main
    Default                     : No
    Forced                      : No

    Text #1
    ID                          : 4
    Format                      : UTF-8
    Codec ID                    : S_TEXT/UTF8
    Codec ID/Info               : UTF-8 Plain Text
    Duration                    : 2 h 27 min
    Bit rate                    : 1 b/s
    Count of elements           : 38
    Stream size                 : 1.33 KiB (0%)
    Title                       : Forzados - CinemaniaHDD.Net
    Language                    : Spanish
    Default                     : Yes
    Forced                      : Yes

    Text #2
    ID                          : 5
    Format                      : UTF-8
    Codec ID                    : S_TEXT/UTF8
    Codec ID/Info               : UTF-8 Plain Text
    Duration                    : 2 h 28 min
    Bit rate                    : 66 b/s
    Count of elements           : 2001
    Stream size                 : 72.2 KiB (0%)
    Title                       : CinemaniaHDD.Net
    Language                    : Spanish
    Default                     : No
    Forced                      : No

    Menu
    00:00:00.000                : :00:00:00.000
    00:01:52.625                : :00:01:52.625
    00:09:21.000                : :00:09:20.833
    00:19:56.208                : :00:19:56.167
    00:21:35.583                : :00:21:35.542
    00:36:13.833                : :00:36:13.833
    00:39:59.083                : :00:39:59.000
    00:47:00.583                : :00:47:00.500
    01:04:30.292                : :01:04:30.083
    01:12:46.417                : :01:12:46.417
    01:21:14.208                : :01:21:14.083
    01:24:00.542                : :01:24:00.542
    01:30:55.708                : :01:30:55.542
    01:34:00.250                : :01:34:00.125
    01:45:03.000                : :01:45:03.000
    01:52:56.458                : :01:52:56.417
    02:04:38.000                : :02:04:38.000
    02:09:00.542                : :02:09:00.375
    02:13:01.958                : :02:13:01.833
    02:21:38.833                : :02:21:38.750
    02:26:24.500                : :02:26:24.417

  • Peso: 4.37 GiB

Sinopsis

Kaira, una cineasta en ciernes muy perfeccionista, conoce a Jug, un terapeuta no convencional que le descubrirá una nueva perspectiva en las imperfecciones de la vida.

Español Latino AC3 2.0 DVD – Hindi AC3 5.1 Blu-ray

Ficha técnica

  • Titulo original: डियर ज़िन्दगी
  • Fecha de lanzamiento: 23-11-2016 (India)
  • Director: Gauri Shinde, Rukhshida David
  • Género: Drama, Romance
  • Puntuación: 5.0 1 votos
  • Duración:
    2h 31m

Video trailer de la película

Enlaces de descarga

Rip de Bluray

Descargar Dear Zindagi (2016) 1080p Latino




Aportes de DPeliculasHDmega la pass es:dpeliculashdmega.org Aportes de CinemaniaHD la pass es:cinemaniahdd.com
Guardado en : Drama , Romance

Películas relacionadas

Comentarios 0