×

¿Problemas para descargar con Mozilla, EDGE? Deshabilita la opción "Abrir vinculos en una pestaña nueva" tal como lo muestra ésta imagen.

Deadwood: La película (2019) 1080p Latino

933 vistas

Información de Deadwood: La película (2019) 1080p Latino

Datos de la película

  • Calidad: 1080p
  • Audio: Español Latino AC3 2.0 BLURAY - Ingles AC3 5.1 BLURAY
  • Subtitulos: Español Latino SRT- FORZADOS SRT
  • Resolución: 1920x800
  • Formato: MKV
  • Codec: H.264
  • Encoder: cinemaniahdd
  • Mediainfo: Clic para Mostrar Datos Ver
  • Deadwood - The Movie (2019) 1080p Latino.mkv
    Format                      : Matroska
    Format version              : Version 4
    File size                   : 3.14 GiB
    Duration                    : 1 h 50 min
    Overall bit rate            : 4 082 kb/s
    Movie name                  : Deadwood - The Movie (2019) - CinemaniaHDD.Net
    Encoded date                : UTC 2019-10-10 03:28:45
    Writing application         : mkvmerge v38.0.0 ('The Silent Type') 64-bit
    Writing library             : libebml v1.3.9 + libmatroska v1.5.2

    Video
    ID                          : 1
    Format                      : AVC
    Format/Info                 : Advanced Video Codec
    Format profile              : Main@L4
    Format settings             : CABAC / 4 Ref Frames
    Format settings, CABAC      : Yes
    Format settings, ReFrames   : 4 frames
    Codec ID                    : V_MPEG4/ISO/AVC
    Duration                    : 1 h 50 min
    Bit rate                    : 3 500 kb/s
    Width                       : 1 920 pixels
    Height                      : 808 pixels
    Display aspect ratio        : 2.000
    Frame rate mode             : Constant
    Frame rate                  : 23.976 (24000/1001) FPS
    Color space                 : YUV
    Chroma subsampling          : 4:2:0
    Bit depth                   : 8 bits
    Scan type                   : Progressive
    Bits/(Pixel*Frame)          : 0.094
    Stream size                 : 2.59 GiB (82%)
    Title                       : CinemaniaHDD
    Writing library             : x264 core 157 r2935 545de2f
    Encoding settings           : cabac=1 / ref=3 / deblock=1:0:0 / analyse=0x1:0x111 / me=hex / subme=7 / psy=1 / psy_rd=1.00:0.00 / mixed_ref=1 / me_range=16 / chroma_me=1 / trellis=1 / 8x8dct=0 / cqm=0 / deadzone=21,11 / fast_pskip=1 / chroma_qp_offset=-2 / threads=25 / lookahead_threads=4 / sliced_threads=0 / nr=0 / decimate=1 / interlaced=0 / bluray_compat=0 / constrained_intra=0 / bframes=3 / b_pyramid=2 / b_adapt=1 / b_bias=0 / direct=1 / weightb=1 / open_gop=0 / weightp=2 / keyint=240 / keyint_min=24 / scenecut=40 / intra_refresh=0 / rc_lookahead=40 / rc=abr / mbtree=1 / bitrate=3500 / ratetol=1.0 / qcomp=0.60 / qpmin=0 / qpmax=69 / qpstep=4 / vbv_maxrate=20000 / vbv_bufsize=25000 / nal_hrd=none / filler=0 / ip_ratio=1.40 / aq=1:1.00
    Default                     : Yes
    Forced                      : No
    Color range                 : Limited
    Color primaries             : BT.709
    Transfer characteristics    : BT.709
    Matrix coefficients         : BT.709

    Audio #1
    ID                          : 2
    Format                      : AC-3
    Format/Info                 : Audio Coding 3
    Commercial name             : Dolby Digital
    Codec ID                    : A_AC3
    Duration                    : 1 h 50 min
    Bit rate mode               : Constant
    Bit rate                    : 256 kb/s
    Channel(s)                  : 2 channels
    Channel layout              : L R
    Sampling rate               : 48.0 kHz
    Frame rate                  : 31.250 FPS (1536 SPF)
    Bit depth                   : 16 bits
    Compression mode            : Lossy
    Stream size                 : 202 MiB (6%)
    Title                       : Español latino [CinemaniaHDD]
    Language                    : Spanish
    Service kind                : Complete Main
    Default                     : Yes
    Forced                      : No

    Audio #2
    ID                          : 3
    Format                      : AC-3
    Format/Info                 : Audio Coding 3
    Commercial name             : Dolby Digital
    Codec ID                    : A_AC3
    Duration                    : 1 h 50 min
    Bit rate mode               : Constant
    Bit rate                    : 448 kb/s
    Channel(s)                  : 6 channels
    Channel layout              : L R C LFE Ls Rs
    Sampling rate               : 48.0 kHz
    Frame rate                  : 31.250 FPS (1536 SPF)
    Bit depth                   : 16 bits
    Compression mode            : Lossy
    Delay relative to video     : -5 ms
    Stream size                 : 353 MiB (11%)
    Title                       : Inglés [CinemaniaHDD]
    Language                    : English
    Service kind                : Complete Main
    Default                     : No
    Forced                      : No

    Text #1
    ID                          : 4
    Format                      : UTF-8
    Codec ID                    : S_TEXT/UTF8
    Codec ID/Info               : UTF-8 Plain Text
    Duration                    : 23 min 37 s
    Bit rate                    : 0 b/s
    Count of elements           : 2
    Stream size                 : 45.0 Bytes (0%)
    Title                       : Forzados [CinemaniaHDD]
    Language                    : Spanish
    Default                     : Yes
    Forced                      : Yes

    Text #2
    ID                          : 5
    Format                      : PGS
    Muxing mode                 : zlib
    Codec ID                    : S_HDMV/PGS
    Codec ID/Info               : Picture based subtitle format used on BDs/HD-DVDs
    Duration                    : 1 h 45 min
    Bit rate                    : 33.5 kb/s
    Count of elements           : 2496
    Stream size                 : 25.2 MiB (1%)
    Title                       : Español latino [CinemaniaHDD]
    Language                    : Spanish
    Default                     : No
    Forced                      : No

    Menu
    00:00:00.000                : :Chapter 1
    00:00:27.027                : :Chapter 2
    00:11:09.169                : :Chapter 3
    00:22:47.533                : :Chapter 4
    00:32:06.716                : :Chapter 5
    00:41:57.098                : :Chapter 6
    00:50:17.890                : :Chapter 7
    01:00:54.526                : :Chapter 8
    01:11:53.059                : :Chapter 9
    01:20:38.834                : :Chapter 10
    01:28:02.277                : :Chapter 11
    01:38:01.376                : :Chapter 12
    01:45:58.811                : :Chapter 13

     

  • Peso: 3.14 GiB

Sinopsis

Ubicada argumentalmente 10 años después del final de la tercera temporada de la serie «Deadwood», que finalizó su emisión en 2006, las rivalidades pasadas se reinician, las alianzas se ponen a prueba y las viejas heridas se reabren, ya que todos se quedan para navegar por los cambios inevitables que la modernidad y el tiempo han provocado.

Ficha técnica

Video trailer de la película

Enlaces de descarga

Rip de Bluray

Descargar Deadwood: La película (2019) 1080p Latino




Aportes de DPeliculasHDmega la pass es:dpeliculashdmega.org Aportes de CinemaniaHD la pass es:cinemaniahdd.com
Guardado en : HD 1080p , Película de TV , Western

Películas relacionadas

  • Borrego: Sal Del Camino (2022) HD 1080p Latino

    Borrego: Sal Del Camino (2022) HD 1080p Latino

    2022
    Borrego: Sal Del Camino (2022) HD 1080p Latino

    1h 42m 2022

    Descargar Borrego: Sal Del Camino (2022) HD 1080p Latino. Una joven botánica se traslada a un pequeño...

    Director: Jesse Harris

    Género: Crimen

    Actores: Olivia Trujillo

  • La familia Monster (2022) HD 1080p Latino

    La familia Monster (2022) HD 1080p Latino

    2022
    La familia Monster (2022) HD 1080p Latino

    1h 49m 2022

    Descargar La familia Monster (2022) HD 1080p Latino. Reboot de "The Munsters", que sigue las desventuras...

    Director: Rob Zombie

    Género: Comedia

    Actores: Tomas Boykin

  • Venganza (2022) HD 1080p Latino

    Venganza (2022) HD 1080p Latino

    2022
    Venganza (2022) HD 1080p Latino

    1h 47m 2022

    Descargar Venganza (2022) HD 1080p Latino. Ben Manalowitz, periodista y presentador de podcasts, viaja...

    Director: Tara Hunter

    Género: Comedia

    Actores: Zach Villa

  • Venganza y redención (2022) HD 1080p Latino

    Venganza y redención (2022) HD 1080p Latino

    2022
    Venganza y redención (2022) HD 1080p Latino

    1h 33m 2022

    Descargar Venganza y redención [Elefante Blanco] (2022) HD 1080p Latino. Un ex miembro de la Marina...

    Director: Jesse V. Johnson

    Género: Acción

    Actores: Vadhir Derbez

descargar Deadwood: La película (2019) 1080p Latino 1080p 1080p gratis, Deadwood: La película (2019) 1080p Latino 1080p mega 1 link, Deadwood: La película (2019) 1080p Latino 1080p pelicula completa, descargar Deadwood: La película (2019) 1080p Latino 1080p gratis en mega.

Deadwood: La película (2019) 1080p Latino pelicula full hd, Deadwood: La película (2019) 1080p Latino mega latino, Deadwood: La película (2019) 1080p Latino 4k latino, Deadwood: La película (2019) 1080p Latino pelicula completa, Deadwood: La película (2019) 1080p Latino descargar gratis, descargar Deadwood: La película (2019) 1080p Latino pelicula latino, Deadwood: La película (2019) 1080p Latino 1 link mega, Deadwood: La película (2019) 1080p Latino 1 link google drive, Deadwood: La película (2019) 1080p Latino hd 1080p latino.
Comentarios 0