×

¿Problemas para descargar con Mozilla, EDGE? Deshabilita la opción "Abrir vinculos en una pestaña nueva" tal como lo muestra ésta imagen.

Deadtectives (2018) AMZN WEB-DL 1080p Latino

958 vistas

Información de Deadtectives (2018) AMZN WEB-DL 1080p Latino

Datos de la película

  • Calidad: WEBDL
  • Audio: Español Latino AC3 2.0 WEB-DL - Ingles AC3 5.1 WEB-DL
  • Subtitulos: Ingles SRT
  • Resolución: 1920x1080
  • Formato: MKV
  • Codec: H.264
  • Encoder: cinemaniahdd
  • Mediainfo: Clic para Mostrar Datos Ver
  • Deadtectives (2018) AMZN WEB-DL 1080p Latino.mkv
    Format                      : Matroska
    Format version              : Version 4
    File size                   : 5.96 GiB
    Duration                    : 1 h 32 min
    Overall bit rate            : 9 274 kb/s
    Movie name                  : Deadtectives (2018) - CinemaniaHDD.Net
    Encoded date                : UTC 2020-03-10 22:41:27
    Writing application         : mkvmerge v42.0.0 ('Overtime') 64-bit
    Writing library             : libebml v1.3.10 + libmatroska v1.5.2

    Video
    ID                          : 1
    Format                      : AVC
    Format/Info                 : Advanced Video Codec
    Format profile              : High@L4
    Format settings             : CABAC / 4 Ref Frames
    Format settings, CABAC      : Yes
    Format settings, ReFrames   : 4 frames
    Codec ID                    : V_MPEG4/ISO/AVC
    Duration                    : 1 h 32 min
    Bit rate mode               : Constant
    Bit rate                    : 8 792 kb/s
    Nominal bit rate            : 10 000 kb/s
    Width                       : 1 920 pixels
    Height                      : 1 080 pixels
    Display aspect ratio        : 16:9
    Frame rate mode             : Constant
    Frame rate                  : 23.976 (24000/1001) FPS
    Color space                 : YUV
    Chroma subsampling          : 4:2:0
    Bit depth                   : 8 bits
    Scan type                   : Progressive
    Bits/(Pixel*Frame)          : 0.177
    Stream size                 : 5.65 GiB (95%)
    Title                       : CinemaniaHDD
    Default                     : Yes
    Forced                      : No
    Color range                 : Limited
    Color primaries             : BT.709
    Transfer characteristics    : BT.709
    Matrix coefficients         : BT.709

    Audio #1
    ID                          : 2
    Format                      : AC-3
    Format/Info                 : Audio Coding 3
    Commercial name             : Dolby Digital
    Codec ID                    : A_AC3
    Duration                    : 1 h 32 min
    Bit rate mode               : Constant
    Bit rate                    : 256 kb/s
    Channel(s)                  : 2 channels
    Channel layout              : L R
    Sampling rate               : 48.0 kHz
    Frame rate                  : 31.250 FPS (1536 SPF)
    Bit depth                   : 16 bits
    Compression mode            : Lossy
    Stream size                 : 169 MiB (3%)
    Title                       : Español latino [CinemaniaHDD]
    Language                    : Spanish
    Service kind                : Complete Main
    Default                     : Yes
    Forced                      : No

    Audio #2
    ID                          : 3
    Format                      : E-AC-3
    Format/Info                 : Enhanced AC-3
    Commercial name             : Dolby Digital Plus
    Codec ID                    : A_EAC3
    Duration                    : 1 h 32 min
    Bit rate mode               : Constant
    Bit rate                    : 224 kb/s
    Channel(s)                  : 2 channels
    Channel layout              : L R
    Sampling rate               : 48.0 kHz
    Frame rate                  : 31.250 FPS (1536 SPF)
    Compression mode            : Lossy
    Stream size                 : 148 MiB (2%)
    Title                       : Inglés [CinemaniaHDD]
    Language                    : English
    Service kind                : Complete Main
    Default                     : No
    Forced                      : No

    Text
    ID                          : 4
    Format                      : UTF-8
    Codec ID                    : S_TEXT/UTF8
    Codec ID/Info               : UTF-8 Plain Text
    Duration                    : 1 h 25 min
    Bit rate                    : 60 b/s
    Count of elements           : 1387
    Stream size                 : 37.8 KiB (0%)
    Title                       : Inglés [CinemaniaHDD]
    Language                    : English
    Default                     : No
    Forced                      : No

     

  • Peso: 5.96 GiB

Sinopsis

DeadTectives está lejos de ser el mejor programa de televisión, de hecho, la cadena amenaza con cancelarlo. La tiranía de la audiencia hará que el equipo de DeadTectives viaje a México para adentrarse en la casa más encantada del país y fingir ante la cámara y con la ayuda de FX que han visto fantasmas. El problema es que unas presencias comienzan a manifestarse… y no parecen fruto de ningún trucaje.

Ficha técnica

  • Titulo original: DeadTectives
  • Fecha de lanzamiento: 26-09-2019 (United States of America)
  • Director: Tony West
  • Género: Comedia, Terror

Video trailer de la película

Enlaces de descarga

Rip de Bluray

Descargar Deadtectives (2018) AMZN WEB-DL 1080p Latino




Aportes de DPeliculasHDmega la pass es:dpeliculashdmega.org Aportes de CinemaniaHD la pass es:cinemaniahdd.com
Guardado en : Comedia , Terror

Películas relacionadas

descargar Deadtectives (2018) AMZN WEB-DL 1080p Latino WEBDL 1080p gratis, Deadtectives (2018) AMZN WEB-DL 1080p Latino WEBDL mega 1 link, Deadtectives (2018) AMZN WEB-DL 1080p Latino WEBDL pelicula completa, descargar Deadtectives (2018) AMZN WEB-DL 1080p Latino WEBDL gratis en mega.

Deadtectives (2018) AMZN WEB-DL 1080p Latino pelicula full hd, Deadtectives (2018) AMZN WEB-DL 1080p Latino mega latino, Deadtectives (2018) AMZN WEB-DL 1080p Latino 4k latino, Deadtectives (2018) AMZN WEB-DL 1080p Latino pelicula completa, Deadtectives (2018) AMZN WEB-DL 1080p Latino descargar gratis, descargar Deadtectives (2018) AMZN WEB-DL 1080p Latino pelicula latino, Deadtectives (2018) AMZN WEB-DL 1080p Latino 1 link mega, Deadtectives (2018) AMZN WEB-DL 1080p Latino 1 link google drive, Deadtectives (2018) AMZN WEB-DL 1080p Latino hd 1080p latino.
Comentarios 0