Deadpool 2 Super Duper Cut (2018) 4K HDR Latino

4.170 vistas
1 estrella2 estrellas3 estrellas4 estrellas5 estrellas (9 votos, promedio: 5,00 de 5)
Cargando…

Información de Deadpool 2 Super Duper Cut (2018) 4K HDR Latino

Datos de la película

  • Calidad: 4K HDR
  • Audio: Español Latino AC3 5.1 BLURAY - Ingles AC3 5.1 BLURAY
  • Subtitulos: Español Latino PGS - Ingles PGS
  • Resolución: 3840x1608p
  • Formato: MKV
  • Codec: H.264
  • Encoder: Dracarys
  • Mediainfo: Clic para Mostrar Datos Ver
  • Format                                   : Matroska
    Format version                           : Version 4 / Version 2
    File size                                : 17.3 GiB
    Duration                                 : 2 h 13 min
    Overall bit rate                         : 18.5 Mb/s
    Movie name                               : CinemaniaHDD.net
    Encoded date                             : UTC 2018-08-23 17:22:34
    Writing application                      : mkvmerge v15.0.0 ('Duel with the Devil') 64-bit
    Writing library                          : libebml v1.3.5 + libmatroska v1.4.5

    Video
    ID                                       : 1
    Format                                   : HEVC
    Format/Info                              : High Efficiency Video Coding
    Format profile                           : Main 10@L5.1@High
    Codec ID                                 : V_MPEGH/ISO/HEVC
    Duration                                 : 2 h 13 min
    Bit rate                                 : 17.3 Mb/s
    Width                                    : 3 840 pixels
    Height                                   : 1 608 pixels
    Display aspect ratio                     : 2.40:1
    Frame rate mode                          : Constant
    Frame rate                               : 23.976 (24000/1001) FPS
    Color space                              : YUV
    Chroma subsampling                       : 4:2:0 (Type 2)
    Bit depth                                : 10 bits
    Bits/(Pixel*Frame)                       : 0.117
    Stream size                              : 16.2 GiB (94%)
    Title                                    : Deadpool 2 Super Duper Cut (2018) 4K HDR Latino
    Writing library                          : x265 2.8+10-703eade86b53:[Windows][MSVC 1914][64 bit] 10bit
    Encoding settings                        : cpuid=1111039 / frame-threads=5 / numa-pools=36 / wpp / no-pmode / no-pme / no-psnr / no-ssim / log-level=2 / input-csp=1 / input-res=3840x1608 / interlace=0 / total-frames=192757 / level-idc=51 / high-tier=1 / uhd-bd=0 / ref=4 / no-allow-non-conformance / repeat-headers / annexb / aud / hrd / info / hash=0 / no-temporal-layers / no-open-gop / min-keyint=1 / keyint=24 / gop-lookahead=0 / bframes=4 / b-adapt=2 / b-pyramid / bframe-bias=0 / rc-lookahead=25 / lookahead-slices=4 / scenecut=40 / radl=0 / no-intra-refresh / ctu=64 / min-cu-size=8 / rect / no-amp / max-tu-size=32 / tu-inter-depth=1 / tu-intra-depth=1 / limit-tu=0 / rdoq-level=2 / dynamic-rd=0.00 / no-ssim-rd / signhide / no-tskip / nr-intra=0 / nr-inter=0 / no-constrained-intra / no-strong-intra-smoothing / max-merge=3 / limit-refs=3 / limit-modes / me=3 / subme=3 / merange=57 / temporal-mvp / weightp / no-weightb / no-analyze-src-pics / deblock=-3:-3 / no-sao / no-sao-non-deblock / rd=4 / no-early-skip / rskip / no-fast-intra / no-tskip-fast / no-cu-lossless / no-b-intra / no-splitrd-skip / rdpenalty=0 / psy-rd=2.00 / psy-rdoq=1.00 / no-rd-refine / no-lossless / cbqpoffs=0 / crqpoffs=0 / rc=crf / crf=17.0 / qcomp=0.60 / qpstep=4 / stats-write=0 / stats-read=0 / vbv-maxrate=160000 / vbv-bufsize=160000 / vbv-init=0.9 / crf-max=0.0 / crf-min=0.0 / ipratio=1.40 / pbratio=1.30 / aq-mode=1 / aq-strength=1.00 / cutree / zone-count=0 / no-strict-cbr / qg-size=32 / no-rc-grain / qpmax=69 / qpmin=0 / no-const-vbv / sar=1 / overscan=0 / videoformat=5 / range=0 / colorprim=9 / transfer=16 / colormatrix=9 / chromaloc=1 / chromaloc-top=2 / chromaloc-bottom=2 / display-window=0 / master-display=G(13250,34500)B(7500,3000)R(34000,16000)WP(15635,16450)L(10000000,50) / max-cll=0,0 / min-luma=0 / max-luma=1023 / log2-max-poc-lsb=8 / vui-timing-info / vui-hrd-info / slices=1 / no-opt-qp-pps / no-opt-ref-list-length-pps / no-multi-pass-opt-rps / scenecut-bias=0.05 / no-opt-cu-delta-qp / no-aq-motion / hdr / hdr-opt / no-dhdr10-opt / no-idr-recovery-sei / analysis-reuse-level=5 / scale-factor=0 / refine-intra=0 / refine-inter=0 / refine-mv=0 / no-limit-sao / ctu-info=0 / no-lowpass-dct / refine-mv-type=0 / copy-pic=1 / max-ausize-factor=1.0 / no-dynamic-refine / no-single-sei
    Language                                 : English
    Default                                  : Yes
    Forced                                   : No
    Color range                              : Limited
    Color primaries                          : BT.2020
    Transfer characteristics                 : PQ
    Matrix coefficients                      : BT.2020 non-constant
    Mastering display color primaries        : R: x=0.680000 y=0.320000, G: x=0.265000 y=0.690000, B: x=0.150000 y=0.060000, White point: x=0.312700 y=0.329000
    Mastering display luminance              : min: 0.0050 cd/m2, max: 1000.0000 cd/m2

    Audio #1
    ID                                       : 2
    Format                                   : AC-3
    Format/Info                              : Audio Coding 3
    Format settings, Endianness              : Big
    Codec ID                                 : A_AC3
    Duration                                 : 2 h 13 min
    Bit rate mode                            : Constant
    Bit rate                                 : 448 kb/s
    Channel(s)                               : 6 channels
    Channel positions                        : Front: L C R, Side: L R, LFE
    Sampling rate                            : 48.0 kHz
    Frame rate                               : 31.250 FPS (1536 SPF)
    Bit depth                                : 16 bits
    Compression mode                         : Lossy
    Stream size                              : 429 MiB (2%)
    Language                                 : Spanish
    Service kind                             : Complete Main
    Default                                  : Yes
    Forced                                   : No

    Audio #2
    ID                                       : 3
    Format                                   : AC-3
    Format/Info                              : Audio Coding 3
    Format settings, Endianness              : Big
    Codec ID                                 : A_AC3
    Duration                                 : 2 h 13 min
    Bit rate mode                            : Constant
    Bit rate                                 : 640 kb/s
    Channel(s)                               : 6 channels
    Channel positions                        : Front: L C R, Side: L R, LFE
    Sampling rate                            : 48.0 kHz
    Frame rate                               : 31.250 FPS (1536 SPF)
    Bit depth                                : 16 bits
    Compression mode                         : Lossy
    Stream size                              : 613 MiB (3%)
    Language                                 : English
    Service kind                             : Complete Main
    Default                                  : No
    Forced                                   : No

    Text #1
    ID                                       : 4
    Format                                   : PGS
    Muxing mode                              : zlib
    Codec ID                                 : S_HDMV/PGS
    Codec ID/Info                            : Picture based subtitle format used on BDs/HD-DVDs
    Duration                                 : 2 h 13 min
    Bit rate                                 : 47.0 kb/s
    Count of elements                        : 4852
    Stream size                              : 44.8 MiB (0%)
    Title                                    : SDH
    Language                                 : English
    Default                                  : No
    Forced                                   : No

    Text #2
    ID                                       : 5
    Format                                   : PGS
    Muxing mode                              : zlib
    Codec ID                                 : S_HDMV/PGS
    Codec ID/Info                            : Picture based subtitle format used on BDs/HD-DVDs
    Duration                                 : 2 h 11 min
    Bit rate                                 : 38.2 kb/s
    Count of elements                        : 3842
    Stream size                              : 35.9 MiB (0%)
    Language                                 : Spanish
    Default                                  : No
    Forced                                   : No

    Text #3
    ID                                       : 6
    Format                                   : PGS
    Muxing mode                              : zlib
    Codec ID                                 : S_HDMV/PGS
    Codec ID/Info                            : Picture based subtitle format used on BDs/HD-DVDs
    Duration                                 : 2 h 10 min
    Bit rate                                 : 832 b/s
    Count of elements                        : 66
    Stream size                              : 798 KiB (0%)
    Title                                    : Forzados
    Language                                 : Spanish
    Default                                  : Yes
    Forced                                   : Yes

    Menu
    00:00:00.000                             : en:00:00:00.000
    00:02:31.693                             : en:00:02:31.693
    00:07:55.517                             : en:00:07:55.517
    00:10:46.229                             : en:00:10:46.229
    00:14:21.194                             : en:00:14:21.194
    00:17:42.937                             : en:00:17:42.937
    00:19:10.775                             : en:00:19:10.775
    00:24:14.370                             : en:00:24:14.370
    00:27:11.630                             : en:00:27:11.630
    00:37:17.444                             : en:00:37:17.444
    00:42:11.821                             : en:00:42:11.821
    00:44:40.428                             : en:00:44:40.428
    00:49:30.926                             : en:00:49:30.926
    00:52:20.471                             : en:00:52:20.471
    00:56:47.613                             : en:00:56:47.613
    01:01:00.073                             : en:01:01:00.073
    01:04:47.050                             : en:01:04:47.050
    01:07:22.997                             : en:01:07:22.997
    01:09:45.098                             : en:01:09:45.098
    01:11:45.426                             : en:01:11:45.426
    01:15:21.016                             : en:01:15:21.016
    01:19:19.213                             : en:01:19:19.213
    01:21:00.189                             : en:01:21:00.189
    01:24:49.543                             : en:01:24:49.543
    01:29:10.845                             : en:01:29:10.845
    01:32:30.420                             : en:01:32:30.420
    01:36:11.391                             : en:01:36:11.391
    01:38:18.851                             : en:01:38:18.851
    01:42:06.329                             : en:01:42:06.329
    01:44:18.711                             : en:01:44:18.711
    01:46:03.774                             : en:01:46:03.774
    01:48:06.730                             : en:01:48:06.730
    01:51:31.977                             : en:01:51:31.977
    01:55:05.398                             : en:01:55:05.398
    01:58:16.047                             : en:01:58:16.047
    02:02:04.317                             : en:02:02:04.317

  • Peso: 17.3 GiB

Sinopsis

Wade Wilson (Ryan Reynolds), mejor conocido como Deadpool, su nombre de batalla e identidad antiheroica, está de regreso con Deadpool 2 y en esta ocasión su misión será salvar a un chico llamado Russell (Julian Dennison) de las manos de un poderoso rival llamado Cable (Josh Brolin). En aras de dar cumplimiento a su tarea el antihéroe formará un grupo al cual pondrá el nombre de X-Force. Secuela de la exitosa película (recaudó más de 780 millones de dólares en todo el mundo) parodia de los superhéroes mutantes del 2016, también protagonizada por Reynolds.

Ficha técnica

Video trailer de la película

Enlaces de descarga

Rip de Bluray

Descargar Deadpool 2 Super Duper Cut (2018) 4K HDR Latino




Aportes de DPeliculasHDmega la pass es:dpeliculashdmega.org Aportes de CinemaniaHD la pass es:cinemaniahdd.com

Películas relacionadas

  • Mision: Imposible 2 (2000) Full 1080p Latino

    2000
    Mision: Imposible 2 (2000) Full 1080p Latino

    3.0 2h 3m 2000

    Descargar Mision: Imposible 2 (2000) Full 1080p Latino, Mega, Google Drive. El agente especial Ethan...

    Director: William H. Burton Jr.

    Género: Acción

    Actores: William Mapother

  • Mision: Imposible 2 (2000) 1080p Latino

    2000
    Mision: Imposible 2 (2000) 1080p Latino

    1.0 2h 3m 2000

    Descargar Mision: Imposible 2 (2000) 1080p Latino, Mega, Google Drive. El agente especial Ethan Hunt...

    Director: William H. Burton Jr.

    Género: Acción

    Actores: William Mapother

  • Mision: Imposible (1996) Full 1080p Latino

    1996
    Mision: Imposible (1996) Full 1080p Latino

    3.7 1h 50m 1996

    Mission: Impossible (1996) Full 1080p Latino, Mega, Google Drive. Ethan Hunt es un superespía capaz...

    Director: Nick Moore

    Género: Acción

    Actores: Ving Rhames

  • Mision: Imposible (1996) 1080p Latino

    1996
    Mision: Imposible (1996) 1080p Latino

    1.0 1h 50m 1996

    Mission: Impossible (1996) 1080p Latino, Mega, Google Drive. Ethan Hunt es un superespía capaz de resolver...

    Director: Nick Moore

    Género: Acción

    Actores: Ving Rhames

  • Los increíbles 2 (2018) Full 1080p Latino

    2018
    Los increíbles 2 (2018) Full 1080p Latino

    4.4 1h 58m 2018

    Helen tiene que liderar una campaña para que los superhéroes regresen, mientras Bob vive su vida "normal"...

    Director: Seong-Young Kim

    Género: Acción

    Actores: Usher

Comentarios 0