Deadpool 2 (2018) Super Duper Cut WEB-DL [AMZN] 1080p Latino

4.321 vistas
1 estrella2 estrellas3 estrellas4 estrellas5 estrellas (11 votos, promedio: 4,36 de 5)
Cargando…

Información de Deadpool 2 (2018) Super Duper Cut WEB-DL [AMZN] 1080p Latino

Datos de la película

  • Calidad: WEBDL
  • Audio: Se especifica abajo de la Sinopsis
  • Subtitulos: Español Latino SRT- FORZADOS SRT
  • Resolución: 1920x1080p
  • Formato: MKV
  • Codec: H.264
  • Encoder: AMAZON
  • Mediainfo: Clic para Mostrar Datos Ver
  • Format                                   : Matroska
    Format version                           : Version 4 / Version 2
    File size                                : 9.88 GiB
    Duration                                 : 2 h 14 min
    Overall bit rate                         : 10.6 Mb/s
    Movie name                               : CinemaniaHDD.net
    Encoded date                             : UTC 2018-08-07 22:19:35
    Writing application                      : mkvmerge v15.0.0 ('Duel with the Devil') 64-bit
    Writing library                          : libebml v1.3.5 + libmatroska v1.4.5

    Video
    ID                                       : 1
    Format                                   : AVC
    Format/Info                              : Advanced Video Codec
    Format profile                           : High@L4
    Format settings                          : CABAC / 4 Ref Frames
    Format settings, CABAC                   : Yes
    Format settings, RefFrames               : 4 frames
    Codec ID                                 : V_MPEG4/ISO/AVC
    Duration                                 : 2 h 14 min
    Bit rate mode                            : Constant
    Bit rate                                 : 10 000 kb/s
    Width                                    : 1 920 pixels
    Height                                   : 1 080 pixels
    Display aspect ratio                     : 16:9
    Frame rate mode                          : Constant
    Frame rate                               : 23.976 (24000/1001) FPS
    Color space                              : YUV
    Chroma subsampling                       : 4:2:0
    Bit depth                                : 8 bits
    Scan type                                : Progressive
    Bits/(Pixel*Frame)                       : 0.201
    Stream size                              : 9.28 GiB (94%)
    Title                                    : Deadpool 2 (2018) Super Duper Cut WEB-DL [AMZN] 1080p Latino
    Language                                 : English
    Default                                  : Yes
    Forced                                   : No
    Color range                              : Limited
    Color primaries                          : BT.709
    Transfer characteristics                 : BT.709
    Matrix coefficients                      : BT.709

    Audio #1
    ID                                       : 2
    Format                                   : AC-3
    Format/Info                              : Audio Coding 3
    Format settings, Endianness              : Big
    Codec ID                                 : A_AC3
    Duration                                 : 2 h 13 min
    Bit rate mode                            : Constant
    Bit rate                                 : 384 kb/s
    Channel(s)                               : 6 channels
    Channel positions                        : Front: L C R, Side: L R, LFE
    Sampling rate                            : 48.0 kHz
    Frame rate                               : 31.250 FPS (1536 SPF)
    Bit depth                                : 16 bits
    Compression mode                         : Lossy
    Delay relative to video                  : 2 s 0 ms
    Stream size                              : 368 MiB (4%)
    Language                                 : Spanish
    Service kind                             : Complete Main
    Default                                  : Yes
    Forced                                   : No

    Audio #2
    ID                                       : 3
    Format                                   : E-AC-3
    Format/Info                              : Enhanced Audio Coding 3
    Format settings, Endianness              : Big
    Codec ID                                 : A_EAC3
    Duration                                 : 2 h 14 min
    Bit rate mode                            : Constant
    Bit rate                                 : 256 kb/s
    Channel(s)                               : 6 channels
    Channel positions                        : Front: L C R, Side: L R, LFE
    Sampling rate                            : 48.0 kHz
    Frame rate                               : 187.500 FPS (256 SPF)
    Compression mode                         : Lossy
    Delay relative to video                  : 30 ms
    Stream size                              : 245 MiB (2%)
    Language                                 : English
    Service kind                             : Complete Main
    Default                                  : No
    Forced                                   : No

    Text #1
    ID                                       : 4
    Format                                   : UTF-8
    Codec ID                                 : S_TEXT/UTF8
    Codec ID/Info                            : UTF-8 Plain Text
    Duration                                 : 2 h 10 min
    Bit rate                                 : 1 b/s
    Count of elements                        : 33
    Stream size                              : 1.10 KiB (0%)
    Title                                    : Forzados
    Language                                 : Spanish
    Default                                  : Yes
    Forced                                   : Yes

    Text #2
    ID                                       : 5
    Format                                   : UTF-8
    Codec ID                                 : S_TEXT/UTF8
    Codec ID/Info                            : UTF-8 Plain Text
    Duration                                 : 2 h 11 min
    Bit rate                                 : 66 b/s
    Count of elements                        : 1861
    Stream size                              : 63.7 KiB (0%)
    Language                                 : Spanish
    Default                                  : No
    Forced                                   : No

    Menu
    00:00:00.000                             : en:Scene 36
    00:00:03.846                             : en:Super Duper Cut: Scene 1
    00:02:33.846                             : en:Super Duper Cut: Scene 2 - Includes New Stuff
    00:07:57.846                             : en:Super Duper Cut: Scene 3 - Includes New Stuff
    00:10:47.846                             : en:Super Duper Cut: Scene 4 - Includes New Stuff
    00:14:22.846                             : en:Super Duper Cut: Scene 5 - Includes New Stuff
    00:17:45.846                             : en:Super Duper Cut: Scene 6 - Includes New Stuff
    00:19:12.846                             : en:Super Duper Cut: Scene 7 - Includes New Stuff
    00:24:28.846                             : en:Super Duper Cut: Scene 8 - Includes New Stuff
    00:27:13.846                             : en:Super Duper Cut: Scene 9 - Includes New Stuff
    00:37:16.846                             : en:Super Duper Cut: Scene 10 - Includes New Stuff
    00:42:13.846                             : en:Super Duper Cut: Scene 11 - Includes New Stuff
    00:44:42.846                             : en:Super Duper Cut: Scene 12 - Includes New Stuff
    00:49:32.846                             : en:Super Duper Cut: Scene 13
    00:52:22.846                             : en:Super Duper Cut: Scene 14 - Includes New Stuff
    00:56:46.846                             : en:Super Duper Cut: Scene 15 - Includes New Stuff
    01:01:01.846                             : en:Super Duper Cut: Scene 16 - Includes New Stuff
    01:04:50.846                             : en:Super Duper Cut: Scene 17 - Includes New Stuff
    01:07:24.846                             : en:Super Duper Cut: Scene 18 - Includes New Stuff
    01:09:46.846                             : en:Super Duper Cut: Scene 19
    01:11:47.846                             : en:Super Duper Cut: Scene 20 - Includes New Stuff
    01:15:18.846                             : en:Super Duper Cut: Scene 21 - Includes New Stuff
    01:19:16.846                             : en:Super Duper Cut: Scene 22 - Includes New Stuff
    01:21:01.846                             : en:Super Duper Cut: Scene 23 - Includes New Stuff
    01:24:51.846                             : en:Super Duper Cut: Scene 24
    01:29:07.846                             : en:Super Duper Cut: Scene 25 - Includes New Stuff
    01:32:32.846                             : en:Super Duper Cut: Scene 26 - Includes New Stuff
    01:36:13.846                             : en:Super Duper Cut: Scene 27 - Includes New Stuff
    01:38:20.846                             : en:Super Duper Cut: Scene 28 - Includes New Stuff
    01:42:08.846                             : en:Super Duper Cut: Scene 29 - Includes New Stuff
    01:44:20.846                             : en:Super Duper Cut: Scene 30
    01:46:05.846                             : en:Super Duper Cut: Scene 31
    01:48:10.846                             : en:Super Duper Cut: Scene 32
    01:51:33.846                             : en:Super Duper Cut: Scene 33 - Includes New Stuff
    01:55:06.846                             : en:Super Duper Cut: Scene 34 - Includes New Stuff
    01:58:16.846                             : en:Super Duper Cut: Scene 35 - Includes New Stuff
    02:02:35.846                             : en:Super Duper Cut: Scene 36 - Includes New Stuff

  • Peso: 9.88 GiB

Sinopsis

Wade Wilson (Ryan Reynolds), mejor conocido como Deadpool, su nombre de batalla e identidad antiheroica, está de regreso con Deadpool 2 y en esta ocasión su misión será salvar a un chico llamado Russell (Julian Dennison) de las manos de un poderoso rival llamado Cable (Josh Brolin). En aras de dar cumplimiento a su tarea el antihéroe formará un grupo al cual pondrá el nombre de X-Force. Secuela de la exitosa película (recaudó más de 780 millones de dólares en todo el mundo) parodia de los superhéroes mutantes del 2016, también protagonizada por Reynolds.

 

 

Audio y vídeo de [AMAZON]

Ficha técnica

Video trailer de la película

Enlaces de descarga

Rip de Bluray

Descargar Deadpool 2 (2018) Super Duper Cut WEB-DL [AMZN] 1080p Latino




Aportes de DPeliculasHDmega la pass es:dpeliculashdmega.org Aportes de CinemaniaHD la pass es:cinemaniahdd.com
Guardado en : Acción , Ciencia ficción , Comedia

Películas relacionadas

  • Godzilla (2014) 1080p Latino

    2014
    Godzilla (2014) 1080p Latino

    0.0 2h 3m 2014

    Descargar Godzilla (2014) 1080p Latino, Mega, Google Drive, Torrent. Gareth Edwards dirige este "reboot",...

    Director: Jessica Clothier

    Género: Acción

    Actores: Yuki Morita

  • Godzilla (2014) Full 1080p Latino

    2014
    Godzilla (2014) Full 1080p Latino

    4.2 2h 3m 2014

    Descargar Godzilla (2014) Full 1080p Latino, Mega, Google Drive, Torrent. Gareth Edwards dirige este...

    Director: Jessica Clothier

    Género: Acción

    Actores: Yuki Morita

  • Amanecer Oscuro (2018) 1080p Latino

    2018
    Amanecer Oscuro (2018) 1080p Latino

    0.0 1h 28m 2018

    Descargar Amanecer Oscuro (2018) 1080p Latino, Mega, Google Drive, Torrent. En un futuro post-apocalíptico,...

    Director: James Franco

    Género: Ciencia ficción

    Actores: Wilmer Calderon

Comentarios 6
  • Roque - 08 agosto, 2018

    Ante todo gracias por tantas peliculas. No puedo descargar una vez hago click en descarga publica me lleva a shink me y ahi le doy a abrir enlace y me queda en re-dir.com y no se puede mostrar la pagina, ahi mueren todos mis intentos, que es lo que estoy haciendo mal?
    Gracias

    • dpelis - 09 agosto, 2018

      vuelva intentar, hasta que le salga el contador de visitas

  • Aldair Jesús - 08 agosto, 2018

    Saben si esta versión también saldrá en blu ray?

    • Dracarys - 08 agosto, 2018

      si saldra

  • exequiel - 08 agosto, 2018

    que tiene de diferencia esta super duper cut

    • Dracarys - 08 agosto, 2018

      15 minutos mas