Deadpool 2 (2018) [Super Duper Cut] Full 1080p Latino

10.094 vistas
1 estrella2 estrellas3 estrellas4 estrellas5 estrellas (27 votos, promedio: 4,07 de 5)
Cargando…

Información de Deadpool 2 (2018) [Super Duper Cut] Full 1080p Latino

Datos de la película

  • Calidad: Full 1080p
  • Audio: Español Latino AC3 5.1 BLURAY - Ingles DTS 5.1 BLURAY
  • Subtitulos: Español Latino PGS - Ingles PGS
  • Resolución: 1920x1080p
  • Formato: MKV
  • Codec: H.264
  • Encoder: Dracarys
  • Mediainfo: Clic para Mostrar Datos Ver
  • Format                                   : Matroska
    Format version                           : Version 4 / Version 2
    File size                                : 7.46 GiB
    Duration                                 : 2 h 13 min
    Overall bit rate                         : 7 972 kb/s
    Movie name                               : CinemaniaHDD.net
    Encoded date                             : UTC 2018-08-13 02:13:29 / UTC 2018-08-12T19:57:53Z
    Writing application                      : mkvmerge v15.0.0 ('Duel with the Devil') 64-bit
    Writing library                          : libebml v1.3.5 + libmatroska v1.4.5 / Lavf57.7.2

    Video
    ID                                       : 1
    Format                                   : AVC
    Format/Info                              : Advanced Video Codec
    Format profile                           : [email protected]
    Format settings                          : CABAC / 4 Ref Frames
    Format settings, CABAC                   : Yes
    Format settings, RefFrames               : 4 frames
    Codec ID                                 : V_MPEG4/ISO/AVC
    Duration                                 : 2 h 13 min
    Bit rate                                 : 5 856 kb/s
    Width                                    : 1 920 pixels
    Height                                   : 1 080 pixels
    Display aspect ratio                     : 16:9
    Frame rate mode                          : Constant
    Frame rate                               : 23.976 (24000/1001) FPS
    Color space                              : YUV
    Chroma subsampling                       : 4:2:0
    Bit depth                                : 8 bits
    Scan type                                : Progressive
    Bits/(Pixel*Frame)                       : 0.118
    Stream size                              : 5.48 GiB (73%)
    Title                                    : Deadpool 2 (2018) [Super Duper Cut] Full 1080p Latino
    Writing library                          : x264 core 148 r2708 86b7198
    Encoding settings                        : cabac=1 / ref=4 / deblock=1:0:0 / analyse=0x3:0x133 / me=esa / subme=10 / psy=1 / psy_rd=1.00:0.00 / mixed_ref=1 / me_range=24 / chroma_me=1 / trellis=2 / 8x8dct=1 / cqm=0 / deadzone=21,11 / fast_pskip=1 / chroma_qp_offset=-2 / threads=34 / lookahead_threads=5 / sliced_threads=0 / nr=0 / decimate=1 / interlaced=0 / bluray_compat=0 / constrained_intra=0 / bframes=8 / b_pyramid=2 / b_adapt=2 / b_bias=0 / direct=3 / weightb=1 / open_gop=0 / weightp=2 / keyint=240 / keyint_min=24 / scenecut=40 / intra_refresh=0 / rc_lookahead=60 / rc=crf / mbtree=1 / crf=20.0 / qcomp=0.60 / qpmin=0 / qpmax=69 / qpstep=4 / vbv_maxrate=62500 / vbv_bufsize=78125 / crf_max=0.0 / nal_hrd=none / filler=0 / ip_ratio=1.40 / aq=1:1.00
    Language                                 : English
    Default                                  : Yes
    Forced                                   : No
    Color range                              : Limited
    Color primaries                          : BT.709
    Transfer characteristics                 : BT.709
    Matrix coefficients                      : BT.709
    Statistics Tags Issue                    : mkvmerge v15.0.0 ('Duel with the Devil') 64-bit 2018-08-13 02:13:29 / mkvmerge v15.0.0 ('Duel with the Devil') 64-bit 2018-08-13 02:13:29 / UTC 2018-08-12T19:57:53Z
    FromStats_BitRate                        : 5985003
    FromStats_Duration                       : 02:13:59.574000000
    FromStats_FrameCount                     : 192757
    FromStats_StreamSize                     : 6014609412

    Audio #1
    ID                                       : 2
    Format                                   : AC-3
    Format/Info                              : Audio Coding 3
    Format settings, Endianness              : Big
    Codec ID                                 : A_AC3
    Duration                                 : 2 h 13 min
    Bit rate mode                            : Constant
    Bit rate                                 : 448 kb/s
    Channel(s)                               : 6 channels
    Channel positions                        : Front: L C R, Side: L R, LFE
    Sampling rate                            : 48.0 kHz
    Frame rate                               : 31.250 FPS (1536 SPF)
    Bit depth                                : 16 bits
    Compression mode                         : Lossy
    Stream size                              : 429 MiB (6%)
    Language                                 : Spanish
    Service kind                             : Complete Main
    Default                                  : Yes
    Forced                                   : No
    Statistics Tags Issue                    : mkvmerge v15.0.0 ('Duel with the Devil') 64-bit 2018-08-13 02:13:29 / mkvmerge v15.0.0 ('Duel with the Devil') 64-bit 2018-08-13 02:13:29 / UTC 2018-08-12T19:57:53Z
    FromStats_BitRate                        : 448000
    FromStats_Duration                       : 02:13:59.584000000
    FromStats_FrameCount                     : 251237
    FromStats_StreamSize                     : 450216704

    Audio #2
    ID                                       : 3
    Format                                   : DTS
    Format/Info                              : Digital Theater Systems
    Format profile                           : ES Matrix / Core
    Mode                                     : 16
    Format settings, Endianness              : Big
    Codec ID                                 : A_DTS
    Duration                                 : 2 h 13 min
    Bit rate mode                            : Constant
    Bit rate                                 : 1 509 kb/s
    Channel(s)                               : 7 channels / 6 channels
    Channel positions                        : Front: L C R, Side: L R, Back: C, LFE / Front: L C R, Side: L R, LFE
    Sampling rate                            : 48.0 kHz
    Frame rate                               : 93.750 FPS (512 SPF)
    Bit depth                                : 24 bits
    Compression mode                         : Lossy
    Stream size                              : 1.41 GiB (19%)
    Language                                 : English
    Default                                  : No
    Forced                                   : No
    Statistics Tags Issue                    : mkvmerge v15.0.0 ('Duel with the Devil') 64-bit 2018-08-13 02:13:29 / mkvmerge v15.0.0 ('Duel with the Devil') 64-bit 2018-08-13 02:13:29 / UTC 2018-08-12T19:57:53Z
    FromStats_BitRate                        : 1508999
    FromStats_Duration                       : 02:13:59.563000000
    FromStats_FrameCount                     : 753709
    FromStats_StreamSize                     : 1516462508

    Text #1
    ID                                       : 4
    Format                                   : PGS
    Muxing mode                              : zlib
    Codec ID                                 : S_HDMV/PGS
    Codec ID/Info                            : Picture based subtitle format used on BDs/HD-DVDs
    Language                                 : English
    Default                                  : No
    Forced                                   : No
    Statistics Tags Issue                    : mkvmerge v15.0.0 ('Duel with the Devil') 64-bit 2018-08-13 02:13:29 / mkvmerge v15.0.0 ('Duel with the Devil') 64-bit 2018-08-13 02:13:29 / UTC 2018-08-12T19:57:53Z
    FromStats_BitRate                        : 47945
    FromStats_Duration                       : 02:13:13.694000000
    FromStats_FrameCount                     : 4852
    FromStats_StreamSize                     : 47908080

    Text #2
    ID                                       : 5
    Format                                   : PGS
    Muxing mode                              : zlib
    Codec ID                                 : S_HDMV/PGS
    Codec ID/Info                            : Picture based subtitle format used on BDs/HD-DVDs
    Language                                 : Spanish
    Default                                  : No
    Forced                                   : No
    Statistics Tags Issue                    : mkvmerge v15.0.0 ('Duel with the Devil') 64-bit 2018-08-13 02:13:29 / mkvmerge v15.0.0 ('Duel with the Devil') 64-bit 2018-08-13 02:13:29 / UTC 2018-08-12T19:57:53Z
    FromStats_BitRate                        : 38383
    FromStats_Duration                       : 02:11:35.763000000
    FromStats_FrameCount                     : 3841
    FromStats_StreamSize                     : 37883813

    Text #3
    ID                                       : 6
    Format                                   : PGS
    Muxing mode                              : zlib
    Codec ID                                 : S_HDMV/PGS
    Codec ID/Info                            : Picture based subtitle format used on BDs/HD-DVDs
    Title                                    : Forzados
    Language                                 : Spanish
    Default                                  : Yes
    Forced                                   : Yes
    Statistics Tags Issue                    : mkvmerge v15.0.0 ('Duel with the Devil') 64-bit 2018-08-13 02:13:29 / mkvmerge v15.0.0 ('Duel with the Devil') 64-bit 2018-08-13 02:13:29 / UTC 2018-08-12T19:57:53Z
    FromStats_BitRate                        : 854
    FromStats_Duration                       : 02:10:49.174000000
    FromStats_FrameCount                     : 66
    FromStats_StreamSize                     : 838129

    Menu
    00:00:00.000                             : :Chapter 1
    00:02:31.693                             : :Chapter 2
    00:07:55.517                             : :Chapter 3
    00:10:46.229                             : :Chapter 4
    00:14:21.194                             : :Chapter 5
    00:17:41.978                             : :Chapter 6
    00:19:10.691                             : :Chapter 7
    00:24:14.370                             : :Chapter 8
    00:27:11.630                             : :Chapter 9
    00:37:17.360                             : :Chapter 10
    00:42:11.821                             : :Chapter 11
    00:44:40.428                             : :Chapter 12
    00:49:30.926                             : :Chapter 13
    00:52:20.471                             : :Chapter 14
    00:56:47.613                             : :Chapter 15
    01:00:59.281                             : :Chapter 16
    01:04:46.257                             : :Chapter 17
    01:07:22.997                             : :Chapter 18
    01:09:45.098                             : :Chapter 19
    01:11:45.009                             : :Chapter 20
    01:15:21.017                             : :Chapter 21
    01:19:19.213                             : :Chapter 22
    01:21:00.189                             : :Chapter 23
    01:24:49.001                             : :Chapter 24
    01:29:10.846                             : :Chapter 25
    01:32:30.420                             : :Chapter 26
    01:36:11.391                             : :Chapter 27
    01:38:18.851                             : :Chapter 28
    01:42:06.329                             : :Chapter 29
    01:44:18.711                             : :Chapter 30
    01:46:03.774                             : :Chapter 31
    01:48:06.730                             : :Chapter 32
    01:51:31.977                             : :Chapter 33
    01:55:05.399                             : :Chapter 34
    01:58:16.047                             : :Chapter 35
    02:02:04.317                             : :Chapter 36

  • Peso: 7.46 GiB

Sinopsis

Wade Wilson (Ryan Reynolds), mejor conocido como Deadpool, su nombre de batalla e identidad antiheroica, está de regreso con Deadpool 2 y en esta ocasión su misión será salvar a un chico llamado Russell (Julian Dennison) de las manos de un poderoso rival llamado Cable (Josh Brolin). En aras de dar cumplimiento a su tarea el antihéroe formará un grupo al cual pondrá el nombre de X-Force. Secuela de la exitosa película (recaudó más de 780 millones de dólares en todo el mundo) parodia de los superhéroes mutantes del 2016, también protagonizada por Reynolds.

Ficha técnica

Video trailer de la película

Enlaces de descarga

Rip de Bluray

Descargar Deadpool 2 (2018) [Super Duper Cut] Full 1080p Latino




Aportes de DPeliculasHDmega la pass es:dpeliculashdmega.org Aportes de CinemaniaHD la pass es:cinemaniahdd.com

Películas relacionadas

  • Swing (2018) WEB-DL 1080p Latino

    2018
    Swing (2018) WEB-DL 1080p Latino

    0.0 1h 44m 2018

    En una noche en la que predomina el alcohol, cuatro amigos deciden intercambiar a sus parejas. Esta decisión...

    Director: Luis Smok

    Género: Comedia

    Actores: Tiago Correa

  • Aquaman (2018) Full HD 1080p Latino

    2018
    Aquaman (2018) Full HD 1080p Latino

    5.0 2h 24m 2018

    Un icono durante más de 70 años, Aquaman (Jason Momoa) es el Rey de los Siete Mares. Este reacio gobernante...

    Director: James Wan

    Género: Acción

    Actores: Yahya Abdul-Mateen II

  • Bumblebee (2018) WEB-DL 1080p Castellano

    2018
    Bumblebee (2018) WEB-DL 1080p Castellano

    0.0 1h 54m 2018

    Sexta entrega de la saga 'Transformers', esta vez centrada en el "hermano pequeño" de los Autobots,...

    Director: Travis Knight

    Género: Acción

    Actores: Yianni Apostolopolous

  • Robin Hood (2018) 4K UHD HDR Latino

    2018
    Robin Hood (2018) 4K UHD HDR Latino

    0.0 1h 56m 2018

    Descargar Robin Hood (2018) 4K UHD HDR Latino, Mega, Google Drive. Cuando el joven Robin Hood (Taron...

    Director: Otto Bathurst

    Género: 4K HDR

    Actores: Yasen Atour

  • Operacion Overlord (2018) 4K UHD HDR Latino

    2018
    Operacion Overlord (2018) 4K UHD HDR Latino

    5.0 1h 50m 2018

    Descargar Operacion Overlord (2018) 4K UHD HDR Latino, Mega, Google Drive. La víspera del Día D, un...

    Director: Roxanne Cuenca

    Género: 4K HDR

    Actores: Wyatt Russell

Comentarios 8
  • The Fat Rat - 13 agosto, 2018

    Subirán una versión placebo ?

    • Dracarys - 13 agosto, 2018

      si

    • pellote - 14 agosto, 2018

      disculpen mi ignorancia que es la version PLACEBO?

      • Dracarys - 14 agosto, 2018

        un 99% a la calidad del bluray

  • Aldair Jesús - 13 agosto, 2018

    Subirán también el theatrical cut?

  • Jonna - 13 agosto, 2018

    Gracias por tan excelente estreno en plateada 🙂

  • gaston - 13 agosto, 2018

    Gracias x los aportes ,son los mejores !