Deadpool 2 (2018) Super Duper Cut 1080p Latino

5.389 vistas
1 estrella2 estrellas3 estrellas4 estrellas5 estrellas (13 votos, promedio: 4,69 de 5)
Cargando…

Información de Deadpool 2 (2018) Super Duper Cut 1080p Latino

Datos de la película

  • Calidad: 1080p
  • Audio: Español Latino AC3 5.1 BLURAY - Ingles AC3 5.1 BLURAY
  • Subtitulos: Español Latino SRT- FORZADOS SRT
  • Resolución: 1920x804p
  • Formato: MKV
  • Codec: H.264
  • Encoder: Dracarys
  • Mediainfo: Clic para Mostrar Datos Ver
  • Format                                   : Matroska
    Format version                           : Version 4 / Version 2
    File size                                : 4.10 GiB
    Duration                                 : 2 h 13 min
    Overall bit rate                         : 4 378 kb/s
    Movie name                               : CinemaniaHDD.net
    Encoded date                             : UTC 2018-08-08 17:51:09 / UTC 2018-08-08T15:58:36Z
    Writing application                      : mkvmerge v15.0.0 ('Duel with the Devil') 64-bit
    Writing library                          : libebml v1.3.5 + libmatroska v1.4.5 / Lavf57.7.2

    Video
    ID                                       : 1
    Format                                   : AVC
    Format/Info                              : Advanced Video Codec
    Format profile                           : High@L4.1
    Format settings                          : CABAC / 5 Ref Frames
    Format settings, CABAC                   : Yes
    Format settings, RefFrames               : 5 frames
    Codec ID                                 : V_MPEG4/ISO/AVC
    Duration                                 : 2 h 13 min
    Bit rate                                 : 3 500 kb/s
    Width                                    :1 92 0 pixels

    Height                                   : 804 pixels

    Display aspect ratio                     : 2.40:1
    Frame rate mode                          : Constant
    Frame rate                               : 23.976 (24000/1001) FPS
    Color space                              : YUV
    Chroma subsampling                       : 4:2:0
    Bit depth                                : 8 bits
    Scan type                                : Progressive
    Bits/(Pixel*Frame)                       : 0.095
    Stream size                              : 3.18 GiB (78%)
    Title                                    : Deadpool 2 (2018) Super Duper Cut 1080p Latino
    Writing library                          : x264 core 155 r2893 b00bcaf
    Encoding settings                        : cabac=1 / ref=5 / deblock=1:0:0 / analyse=0x3:0x113 / me=hex / subme=8 / psy=1 / psy_rd=1.00:0.00 / mixed_ref=1 / me_range=16 / chroma_me=1 / trellis=2 / 8x8dct=1 / cqm=0 / deadzone=21,11 / fast_pskip=1 / chroma_qp_offset=-2 / threads=25 / lookahead_threads=4 / sliced_threads=0 / nr=0 / decimate=1 / interlaced=0 / bluray_compat=0 / constrained_intra=0 / bframes=3 / b_pyramid=2 / b_adapt=1 / b_bias=0 / direct=3 / weightb=1 / open_gop=0 / weightp=2 / keyint=240 / keyint_min=24 / scenecut=40 / intra_refresh=0 / rc_lookahead=50 / rc=abr / mbtree=1 / bitrate=3500 / ratetol=1.0 / qcomp=0.60 / qpmin=0 / qpmax=69 / qpstep=4 / vbv_maxrate=62500 / vbv_bufsize=78125 / nal_hrd=none / filler=0 / ip_ratio=1.40 / aq=1:1.00
    Language                                 : English
    Default                                  : Yes
    Forced                                   : No
    Color range                              : Limited
    Color primaries                          : BT.709
    Transfer characteristics                 : BT.709
    Matrix coefficients                      : BT.709
    Statistics Tags Issue                    : mkvmerge v15.0.0 ('Duel with the Devil') 64-bit 2018-08-08 17:51:09 / mkvmerge v15.0.0 ('Duel with the Devil') 64-bit 2018-08-08 17:51:09 / UTC 2018-08-08T15:58:36Z
    FromStats_BitRate                        : 3479916
    FromStats_Duration                       : 02:13:59.574000000
    FromStats_FrameCount                     : 192757
    FromStats_StreamSize                     : 3497130587

    Audio #1
    ID                                       : 2
    Format                                   : AC-3
    Format/Info                              : Audio Coding 3
    Format settings, Endianness              : Big
    Codec ID                                 : A_AC3
    Duration                                 : 2 h 13 min
    Bit rate mode                            : Constant
    Bit rate                                 : 448 kb/s
    Channel(s)                               : 6 channels
    Channel positions                        : Front: L C R, Side: L R, LFE
    Sampling rate                            : 48.0 kHz
    Frame rate                               : 31.250 FPS (1536 SPF)
    Bit depth                                : 16 bits
    Compression mode                         : Lossy
    Delay relative to video                  : -5 ms
    Stream size                              : 429 MiB (10%)
    Language                                 : Spanish
    Service kind                             : Complete Main
    Default                                  : Yes
    Forced                                   : No
    Statistics Tags Issue                    : mkvmerge v15.0.0 ('Duel with the Devil') 64-bit 2018-08-08 17:51:09 / mkvmerge v15.0.0 ('Duel with the Devil') 64-bit 2018-08-08 17:51:09 / UTC 2018-08-08T15:58:36Z
    FromStats_BitRate                        : 448000
    FromStats_Duration                       : 02:13:59.584000000
    FromStats_FrameCount                     : 251237
    FromStats_StreamSize                     : 450216704

    Audio #2
    ID                                       : 3
    Format                                   : AC-3
    Format/Info                              : Audio Coding 3
    Format settings, Endianness              : Big
    Codec ID                                 : A_AC3
    Duration                                 : 2 h 13 min
    Bit rate mode                            : Constant
    Bit rate                                 : 448 kb/s
    Channel(s)                               : 6 channels
    Channel positions                        : Front: L C R, Side: L R, LFE
    Sampling rate                            : 48.0 kHz
    Frame rate                               : 31.250 FPS (1536 SPF)
    Bit depth                                : 16 bits
    Compression mode                         : Lossy
    Stream size                              : 429 MiB (10%)
    Title                                    : Surround
    Language                                 : English
    Service kind                             : Complete Main
    Default                                  : No
    Forced                                   : No
    Statistics Tags Issue                    : mkvmerge v15.0.0 ('Duel with the Devil') 64-bit 2018-08-08 17:51:09 / mkvmerge v15.0.0 ('Duel with the Devil') 64-bit 2018-08-08 17:51:09 / UTC 2018-08-08T15:58:36Z
    FromStats_BitRate                        : 448000
    FromStats_Duration                       : 02:13:59.552000000
    FromStats_FrameCount                     : 251236
    FromStats_StreamSize                     : 450214912

    Text #1
    ID                                       : 4
    Format                                   : UTF-8
    Codec ID                                 : S_TEXT/UTF8
    Codec ID/Info                            : UTF-8 Plain Text
    Title                                    : Forzados
    Language                                 : Spanish
    Default                                  : Yes
    Forced                                   : Yes
    Statistics Tags Issue                    : mkvmerge v15.0.0 ('Duel with the Devil') 64-bit 2018-08-08 17:51:09 / mkvmerge v15.0.0 ('Duel with the Devil') 64-bit 2018-08-08 17:51:09 / UTC 2018-08-08T15:58:36Z
    FromStats_BitRate                        : 1
    FromStats_Duration                       : 02:10:49.175000000
    FromStats_FrameCount                     : 33
    FromStats_StreamSize                     : 1126

    Text #2
    ID                                       : 5
    Format                                   : UTF-8
    Codec ID                                 : S_TEXT/UTF8
    Codec ID/Info                            : UTF-8 Plain Text
    Language                                 : Spanish
    Default                                  : No
    Forced                                   : No
    Statistics Tags Issue                    : mkvmerge v15.0.0 ('Duel with the Devil') 64-bit 2018-08-08 17:51:09 / mkvmerge v15.0.0 ('Duel with the Devil') 64-bit 2018-08-08 17:51:09 / UTC 2018-08-08T15:58:36Z
    FromStats_BitRate                        : 66
    FromStats_Duration                       : 02:11:35.850000000
    FromStats_FrameCount                     : 1861
    FromStats_StreamSize                     : 65270

    Menu
    00:00:00.000                             : :00:00:00.000
    00:02:31.693                             : :00:02:31.693
    00:07:55.558                             : :00:07:55.517
    00:10:46.229                             : :00:10:46.229
    00:14:21.235                             : :00:14:21.194
    00:17:43.062                             : :00:17:42.937
    00:19:10.858                             : :00:19:10.775
    00:24:14.370                             : :00:24:14.370
    00:27:11.630                             : :00:27:11.630
    00:37:17.527                             : :00:37:17.444
    00:42:11.821                             : :00:42:11.821
    00:44:40.428                             : :00:44:40.428
    00:49:30.926                             : :00:49:30.926
    00:52:20.471                             : :00:52:20.471
    00:56:47.613                             : :00:56:47.613
    01:01:00.240                             : :01:01:00.073
    01:04:47.175                             : :01:04:47.050
    01:07:22.997                             : :01:07:22.997
    01:09:45.181                             : :01:09:45.098
    01:11:45.426                             : :01:11:45.426
    01:15:21.017                             : :01:15:21.016
    01:19:19.213                             : :01:19:19.213
    01:21:00.230                             : :01:21:00.189
    01:24:49.585                             : :01:24:49.543
    01:29:10.846                             : :01:29:10.845
    01:32:30.420                             : :01:32:30.420
    01:36:11.391                             : :01:36:11.391
    01:38:18.935                             : :01:38:18.851
    01:42:06.329                             : :01:42:06.329
    01:44:18.711                             : :01:44:18.711
    01:46:03.774                             : :01:46:03.774
    01:48:06.730                             : :01:48:06.730
    01:51:31.977                             : :01:51:31.977
    01:55:05.399                             : :01:55:05.398
    01:58:16.089                             : :01:58:16.047
    02:02:04.317                             : :Medusa @ HDChina

  • Peso: 4.10 GiB

Sinopsis

Descargar Deadpool 2 Latino Tras sobrevivir a un ataque bovino casi mortal, un desfigurado cocinero (Wade Wilson) lucha por cumplir su sueño de convertirse en el camarero buenorro de First Dates mientras aprende a arreglárselas después de perder el sentido del gusto. Buscando algo picante en su vida (y también un condensador de fluzo), Wade deberá luchar contra ninjas, yakuzas y una manada de canes sexualmente agresivos mientras viaja alrededor del mundo para descubrir la importancia de la familia, la amistad y el sabor, encontrando un nuevo gusto por la aventura y ganándose la codiciada taza de “Mejor Amante del Mundo”.

Ficha técnica

Video trailer de la película

Enlaces de descarga

Rip de Bluray

Descargar Deadpool 2 (2018) Super Duper Cut 1080p Latino




Aportes de DPeliculasHDmega la pass es:dpeliculashdmega.org Aportes de CinemaniaHD la pass es:cinemaniahdd.com

Películas relacionadas

  • Godzilla (2014) 1080p Latino

    2014
    Godzilla (2014) 1080p Latino

    0.0 2h 3m 2014

    Descargar Godzilla (2014) 1080p Latino, Mega, Google Drive, Torrent. Gareth Edwards dirige este "reboot",...

    Director: Jessica Clothier

    Género: Acción

    Actores: Yuki Morita

  • Godzilla (2014) Full 1080p Latino

    2014
    Godzilla (2014) Full 1080p Latino

    4.2 2h 3m 2014

    Descargar Godzilla (2014) Full 1080p Latino, Mega, Google Drive, Torrent. Gareth Edwards dirige este...

    Director: Jessica Clothier

    Género: Acción

    Actores: Yuki Morita

  • Un pequeño favor (2018) 1080p Latino

    2018
    Un pequeño favor (2018) 1080p Latino

    5.0 1h 57m 2018

    Un pequeño favor  torrnet Stephanie es una joven madre bloguera de una ciudad pequeña cuya mejor amiga,...

    Director: Paul Feig

    Género: Crimen

    Actores: Zach Smadu

Comentarios 11
  • Franckable - 09 septiembre, 2018

    Gracias por la pelicua en excelente calidad!!!!!!

  • Francisco - 11 agosto, 2018

    Hola amigo gracias por las películas
    Una consulta cuando subiran Deadpool 2 en carátula plateada??

    • Dracarys - 12 agosto, 2018

      en 1 dia

  • gerardo - 09 agosto, 2018

    Se las mandaron muchas gracias

  • Fabian - 09 agosto, 2018

    Prueben con “cinemaniahdd.com”

  • panteragnr - 09 agosto, 2018

    Hola, primero gracias por la peli..

    2° no me funciona ningún password para descomprimir:
    dpeliculashdmega.org
    cinemaniahdd.org

    • dpelis - 09 agosto, 2018

      prueba
      cinemaniahdd.net

  • Paulo - 08 agosto, 2018

    Que quiere decir super duper cut? Se refiere a la calidad o como fue ripeada? Gracias.

    • Dracarys - 08 agosto, 2018

      es la versión extendida, unrated

  • edgar garica - 08 agosto, 2018

    una duda, la version extendida doblada esta completa o tiene partes en ingles?

    • Dracarys - 08 agosto, 2018

      Completa