Deadpool 2 (2018) Full 1080p Latino PLACEBO

3.590 vistas
1 estrella2 estrellas3 estrellas4 estrellas5 estrellas (9 votos, promedio: 5,00 de 5)
Cargando…

Información de Deadpool 2 (2018) Full 1080p Latino PLACEBO

Datos de la película

  • Calidad: Full 1080p
  • Audio: Español Latino AC3 5.1 BLURAY - Ingles DTS 5.1 BLURAY
  • Subtitulos: Español Latino PGS - Ingles PGS
  • Resolución: 1920x1080p
  • Formato: MKV
  • Codec: H.264
  • Encoder: Dracarys
  • Mediainfo: Clic para Mostrar Datos Ver
  • Format                                   : Matroska
    Format version                           : Version 4 / Version 2
    File size                                : 6.11 GiB
    Duration                                 : 1 h 59 min
    Overall bit rate                         : 7 330 kb/s
    Movie name                               : CinemaniaHDD.net
    Encoded date                             : UTC 2018-08-14 03:06:15 / UTC 2018-08-13T06:22:07Z
    Writing application                      : mkvmerge v15.0.0 ('Duel with the Devil') 64-bit
    Writing library                          : libebml v1.3.5 + libmatroska v1.4.5 / Lavf57.7.2

    Video
    ID                                       : 1
    Format                                   : AVC
    Format/Info                              : Advanced Video Codec
    Format profile                           : High@L4.1
    Format settings                          : CABAC / 4 Ref Frames
    Format settings, CABAC                   : Yes
    Format settings, RefFrames               : 4 frames
    Codec ID                                 : V_MPEG4/ISO/AVC
    Duration                                 : 1 h 59 min
    Bit rate                                 : 5 227 kb/s
    Width                                    : 1 920 pixels
    Height                                   : 1 080 pixels
    Display aspect ratio                     : 16:9
    Frame rate mode                          : Constant
    Frame rate                               : 23.976 (24000/1001) FPS
    Color space                              : YUV
    Chroma subsampling                       : 4:2:0
    Bit depth                                : 8 bits
    Scan type                                : Progressive
    Bits/(Pixel*Frame)                       : 0.105
    Stream size                              : 4.36 GiB (71%)
    Title                                    : Deadpool 2 (2018) Full 1080p Latino PLACEBO
    Writing library                          : x264 core 148 r2708 86b7198
    Encoding settings                        : cabac=1 / ref=4 / deblock=1:0:0 / analyse=0x3:0x133 / me=tesa / subme=11 / psy=1 / psy_rd=1.00:0.00 / mixed_ref=1 / me_range=24 / chroma_me=1 / trellis=2 / 8x8dct=1 / cqm=0 / deadzone=21,11 / fast_pskip=0 / chroma_qp_offset=-2 / threads=34 / lookahead_threads=8 / sliced_threads=0 / nr=0 / decimate=1 / interlaced=0 / bluray_compat=0 / constrained_intra=0 / bframes=16 / b_pyramid=2 / b_adapt=2 / b_bias=0 / direct=3 / weightb=1 / open_gop=0 / weightp=2 / keyint=240 / keyint_min=24 / scenecut=40 / intra_refresh=0 / rc_lookahead=60 / rc=crf / mbtree=1 / crf=20.0 / qcomp=0.60 / qpmin=0 / qpmax=69 / qpstep=4 / vbv_maxrate=62500 / vbv_bufsize=78125 / crf_max=0.0 / nal_hrd=none / filler=0 / ip_ratio=1.40 / aq=1:1.00
    Language                                 : English
    Default                                  : Yes
    Forced                                   : No
    Color range                              : Limited
    Color primaries                          : BT.709
    Transfer characteristics                 : BT.709
    Matrix coefficients                      : BT.709
    Statistics Tags Issue                    : mkvmerge v15.0.0 ('Duel with the Devil') 64-bit 2018-08-14 03:06:15 / mkvmerge v15.0.0 ('Duel with the Devil') 64-bit 2018-08-14 03:06:15 / UTC 2018-08-13T06:22:07Z
    FromStats_BitRate                        : 5343751
    FromStats_Duration                       : 01:59:20.195000000
    FromStats_FrameCount                     : 171673
    FromStats_StreamSize                     : 4782787486

    Audio #1
    ID                                       : 2
    Format                                   : AC-3
    Format/Info                              : Audio Coding 3
    Format settings, Endianness              : Big
    Codec ID                                 : A_AC3
    Duration                                 : 1 h 59 min
    Bit rate mode                            : Constant
    Bit rate                                 : 448 kb/s
    Channel(s)                               : 6 channels
    Channel positions                        : Front: L C R, Side: L R, LFE
    Sampling rate                            : 48.0 kHz
    Frame rate                               : 31.250 FPS (1536 SPF)
    Bit depth                                : 16 bits
    Compression mode                         : Lossy
    Stream size                              : 382 MiB (6%)
    Language                                 : Spanish
    Service kind                             : Complete Main
    Default                                  : Yes
    Forced                                   : No
    Statistics Tags Issue                    : mkvmerge v15.0.0 ('Duel with the Devil') 64-bit 2018-08-14 03:06:15 / mkvmerge v15.0.0 ('Duel with the Devil') 64-bit 2018-08-14 03:06:15 / UTC 2018-08-13T06:22:07Z
    FromStats_BitRate                        : 448000
    FromStats_Duration                       : 01:59:20.224000000
    FromStats_FrameCount                     : 223757
    FromStats_StreamSize                     : 400972544

    Audio #2
    ID                                       : 3
    Format                                   : DTS
    Format/Info                              : Digital Theater Systems
    Mode                                     : 16
    Format settings, Endianness              : Big
    Codec ID                                 : A_DTS
    Duration                                 : 1 h 59 min
    Bit rate mode                            : Constant
    Bit rate                                 : 1 509 kb/s
    Channel(s)                               : 6 channels
    Channel positions                        : Front: L C R, Side: L R, LFE
    Sampling rate                            : 48.0 kHz
    Frame rate                               : 93.750 FPS (512 SPF)
    Bit depth                                : 24 bits
    Compression mode                         : Lossy
    Stream size                              : 1.26 GiB (21%)
    Language                                 : English
    Default                                  : No
    Forced                                   : No
    Statistics Tags Issue                    : mkvmerge v15.0.0 ('Duel with the Devil') 64-bit 2018-08-14 03:06:15 / mkvmerge v15.0.0 ('Duel with the Devil') 64-bit 2018-08-14 03:06:15 / UTC 2018-08-13T06:22:07Z
    FromStats_BitRate                        : 1509000
    FromStats_Duration                       : 01:59:20.192000000
    FromStats_FrameCount                     : 671268
    FromStats_StreamSize                     : 1350591216

    Text #1
    ID                                       : 4
    Format                                   : PGS
    Muxing mode                              : zlib
    Codec ID                                 : S_HDMV/PGS
    Codec ID/Info                            : Picture based subtitle format used on BDs/HD-DVDs
    Language                                 : English
    Default                                  : No
    Forced                                   : No
    Statistics Tags Issue                    : mkvmerge v15.0.0 ('Duel with the Devil') 64-bit 2018-08-14 03:06:15 / mkvmerge v15.0.0 ('Duel with the Devil') 64-bit 2018-08-14 03:06:15 / UTC 2018-08-13T06:22:07Z
    FromStats_BitRate                        : 47773
    FromStats_Duration                       : 01:58:05.954000000
    FromStats_FrameCount                     : 4301
    FromStats_StreamSize                     : 42315017

    Text #2
    ID                                       : 5
    Format                                   : PGS
    Muxing mode                              : zlib
    Codec ID                                 : S_HDMV/PGS
    Codec ID/Info                            : Picture based subtitle format used on BDs/HD-DVDs
    Language                                 : Spanish
    Default                                  : No
    Forced                                   : No
    Statistics Tags Issue                    : mkvmerge v15.0.0 ('Duel with the Devil') 64-bit 2018-08-14 03:06:15 / mkvmerge v15.0.0 ('Duel with the Devil') 64-bit 2018-08-14 03:06:15 / UTC 2018-08-13T06:22:07Z
    FromStats_BitRate                        : 36389
    FromStats_Duration                       : 01:56:56.676000000
    FromStats_FrameCount                     : 3146
    FromStats_StreamSize                     : 31916680

    Text #3
    ID                                       : 6
    Format                                   : PGS
    Muxing mode                              : zlib
    Codec ID                                 : S_HDMV/PGS
    Codec ID/Info                            : Picture based subtitle format used on BDs/HD-DVDs
    Title                                    : Forzados
    Language                                 : Spanish
    Default                                  : Yes
    Forced                                   : Yes
    Statistics Tags Issue                    : mkvmerge v15.0.0 ('Duel with the Devil') 64-bit 2018-08-14 03:06:15 / mkvmerge v15.0.0 ('Duel with the Devil') 64-bit 2018-08-14 03:06:15 / UTC 2018-08-13T06:22:07Z
    FromStats_BitRate                        : 676
    FromStats_Duration                       : 01:56:08.003000000
    FromStats_FrameCount                     : 54
    FromStats_StreamSize                     : 589479

    Menu
    00:00:00.000                             : :Chapter 1
    00:02:31.693                             : :Chapter 2
    00:05:53.436                             : :Chapter 3
    00:08:11.658                             : :Chapter 4
    00:11:30.565                             : :Chapter 5
    00:14:52.100                             : :Chapter 6
    00:16:20.980                             : :Chapter 7
    00:20:24.515                             : :Chapter 8
    00:22:00.528                             : :Chapter 9
    00:26:34.468                             : :Chapter 10
    00:31:40.774                             : :Chapter 11
    00:35:16.948                             : :Chapter 12
    00:39:00.380                             : :Chapter 13
    00:41:49.924                             : :Chapter 14
    00:46:16.232                             : :Chapter 15
    00:50:30.027                             : :Chapter 16
    00:53:56.066                             : :Chapter 17
    00:56:27.426                             : :Chapter 18
    00:58:25.711                             : :Chapter 19
    01:00:26.039                             : :Chapter 20
    01:03:59.294                             : :Chapter 21
    01:07:57.490                             : :Chapter 22
    01:09:38.466                             : :Chapter 23
    01:13:27.820                             : :Chapter 24
    01:17:49.123                             : :Chapter 25
    01:20:56.018                             : :Chapter 26
    01:24:05.916                             : :Chapter 27
    01:26:21.343                             : :Chapter 28
    01:29:28.905                             : :Chapter 29
    01:31:41.287                             : :Chapter 30
    01:33:26.351                             : :Chapter 31
    01:35:29.307                             : :Chapter 32
    01:38:54.554                             : :Chapter 33
    01:42:16.172                             : :Chapter 34
    01:45:19.021                             : :Chapter 35
    01:49:00.576                             : :Chapter 36

  • Peso: 6.11 GiB

Sinopsis

Wade Wilson (Ryan Reynolds), mejor conocido como Deadpool, su nombre de batalla e identidad antiheroica, está de regreso con Deadpool 2 y en esta ocasión su misión será salvar a un chico llamado Russell (Julian Dennison) de las manos de un poderoso rival llamado Cable (Josh Brolin). En aras de dar cumplimiento a su tarea el antihéroe formará un grupo al cual pondrá el nombre de X-Force. Secuela de la exitosa película (recaudó más de 780 millones de dólares en todo el mundo) parodia de los superhéroes mutantes del 2016, también protagonizada por Reynolds.

Ficha técnica

Video trailer de la película

Enlaces de descarga

Rip de Bluray

Descargar Deadpool 2 (2018) Full 1080p Latino PLACEBO




Aportes de DPeliculasHDmega la pass es:dpeliculashdmega.org Aportes de CinemaniaHD la pass es:cinemaniahdd.com

Películas relacionadas

  • Matar o morir (2018) 1080p Subtitulado

    2018
    Matar o morir (2018) 1080p Subtitulado

    5.0 1h 41m 2018

    Descargar Matar o morir [Peppermint] (2018) 1080p Subtitulado, Mega, Google Drive. LRiley North (Jennifer...

    Director: Pierre Morel

    Género: Acción

    Actores: YaYa Gosselin

  • Ni en tus sueños (2010) Full 1080p Latino

    2010
    Ni en tus sueños (2010) Full 1080p Latino

    0.0 1h 44m 2010

    Descargar Ni en tus sueños (2010) Full 1080p Latino, Mega, Google Drive. Kirk (Jay Baruchel, "Tropic...

    Director: Richard L. Fox

    Género: Comedia

    Actores: Yan Xi

  • Ni en tus sueños (2010) 1080p Latino

    2010
    Ni en tus sueños (2010) 1080p Latino

    0.0 1h 44m 2010

    Descargar Ni en tus sueños (2010) 1080p Latino, Mega, Google Drive. Kirk (Jay Baruchel, "Tropic Thunder")...

    Director: Richard L. Fox

    Género: Comedia

    Actores: Yan Xi

  • La Chica de La Capa Roja (2011) Full 1080p Latino

    2011
    La Chica de La Capa Roja (2011) Full 1080p Latino

    4.7 1h 40m 2011

    Descargar La Chica de La Capa Roja (2011) Full 1080p Latino, Mega, Google Drive. La joven Valerie se...

    Director: Kimi Webber

    Género: Fantasía

    Actores: Virginia Madsen

Comentarios 6
  • Facundo Ezequiel - 15 agosto, 2018

    que quiere decir con placebo ? y que diferencia hay de la version super duper cut y la full hd?

    • dpelis - 15 agosto, 2018

      la placebo en la mejor calidad

  • Nicolás - 14 agosto, 2018

    que diferencia hay entre la placebo y la super duper cut?

    • dpelis - 15 agosto, 2018

      mejor calidad

  • Richard - 14 agosto, 2018

    Hola que tal, excelente pagina, disculpa que significa PLACEBO?

    • Dracarys - 14 agosto, 2018

      un 99% a la calidad del bluray