Deadpool 2 (2018) WEBDL-1080p Latino

4.815 vistas
1 estrella2 estrellas3 estrellas4 estrellas5 estrellas (10 votos, promedio: 4,60 de 5)
Cargando…

Información de Deadpool 2 (2018) WEBDL-1080p Latino

Datos de la película

  • Calidad: WEBDL
  • Audio: Español Latino AC3 2.0 iTunes - Ingles AC3 5.1 iTunes
  • Subtitulos: Español Latino SRT- FORZADOS SRT
  • Resolución: 1920x804p
  • Formato: MKV
  • Codec: H.264
  • Encoder: 4.30 GiB
  • Mediainfo: Clic para Mostrar Datos Ver
  • Format                                   : Matroska
    Format version                           : Version 4 / Version 2
    File size                                : 4.30 GiB
    Duration                                 : 1 h 59 min
    Overall bit rate                         : 5 149 kb/s
    Movie name                               : CinemaniaHDD.net
    Encoded date                             : UTC 2018-08-07 06:09:33
    Writing application                      : mkvmerge v15.0.0 ('Duel with the Devil') 64-bit
    Writing library                          : libebml v1.3.5 + libmatroska v1.4.5

    Video
    ID                                       : 1
    Format                                   : AVC
    Format/Info                              : Advanced Video Codec
    Format profile                           : High@L4
    Format settings                          : CABAC / 5 Ref Frames
    Format settings, CABAC                   : Yes
    Format settings, RefFrames               : 5 frames
    Codec ID                                 : V_MPEG4/ISO/AVC
    Duration                                 : 1 h 59 min
    Bit rate                                 : 4 508 kb/s
    Width                                    : 1 920 pixels
    Height                                   : 804 pixels
    Display aspect ratio                     : 2.40:1
    Frame rate mode                          : Constant
    Frame rate                               : 23.976 (24000/1001) FPS
    Color space                              : YUV
    Chroma subsampling                       : 4:2:0
    Bit depth                                : 8 bits
    Scan type                                : Progressive
    Bits/(Pixel*Frame)                       : 0.122
    Stream size                              : 3.76 GiB (88%)
    Title                                    : Deadpool 2 (2018) WEBDL-1080p Latino
    Language                                 : English
    Default                                  : Yes
    Forced                                   : No
    Color range                              : Limited
    Color primaries                          : BT.709
    Transfer characteristics                 : BT.709
    Matrix coefficients                      : BT.709

    Audio #1
    ID                                       : 2
    Format                                   : AC-3
    Format/Info                              : Audio Coding 3
    Format settings, Endianness              : Big
    Codec ID                                 : A_AC3
    Duration                                 : 1 h 59 min
    Bit rate mode                            : Constant
    Bit rate                                 : 256 kb/s
    Channel(s)                               : 2 channels
    Channel positions                        : Front: L R
    Sampling rate                            : 48.0 kHz
    Frame rate                               : 31.250 FPS (1536 SPF)
    Bit depth                                : 16 bits
    Compression mode                         : Lossy
    Delay relative to video                  : -43 ms
    Stream size                              : 218 MiB (5%)
    Language                                 : Spanish
    Service kind                             : Complete Main
    Default                                  : Yes
    Forced                                   : No

    Audio #2
    ID                                       : 3
    Format                                   : AC-3
    Format/Info                              : Audio Coding 3
    Format settings, Endianness              : Big
    Codec ID                                 : A_AC3
    Duration                                 : 1 h 59 min
    Bit rate mode                            : Constant
    Bit rate                                 : 384 kb/s
    Channel(s)                               : 6 channels
    Channel positions                        : Front: L C R, Side: L R, LFE
    Sampling rate                            : 48.0 kHz
    Frame rate                               : 31.250 FPS (1536 SPF)
    Bit depth                                : 16 bits
    Compression mode                         : Lossy
    Delay relative to video                  : -43 ms
    Stream size                              : 328 MiB (7%)
    Language                                 : English
    Service kind                             : Complete Main
    Default                                  : No
    Forced                                   : No

    Text #1
    ID                                       : 4
    Format                                   : UTF-8
    Codec ID                                 : S_TEXT/UTF8
    Codec ID/Info                            : UTF-8 Plain Text
    Duration                                 : 1 h 56 min
    Bit rate                                 : 58 b/s
    Count of elements                        : 1574
    Stream size                              : 50.4 KiB (0%)
    Language                                 : Spanish
    Default                                  : No
    Forced                                   : No

    Text #2
    ID                                       : 5
    Format                                   : UTF-8
    Codec ID                                 : S_TEXT/UTF8
    Codec ID/Info                            : UTF-8 Plain Text
    Duration                                 : 1 h 50 min
    Bit rate                                 : 0 b/s
    Count of elements                        : 26
    Stream size                              : 759 Bytes (0%)
    Title                                    : Forzados
    Language                                 : Spanish
    Default                                  : Yes
    Forced                                   : Yes

    Menu
    00:00:00.000                             : en:Chapter 01
    00:02:30.692                             : en:Chapter 02
    00:05:52.435                             : en:Chapter 03
    00:08:10.656                             : en:Chapter 04
    00:11:29.563                             : en:Chapter 05
    00:14:51.097                             : en:Chapter 06
    00:16:19.977                             : en:Chapter 07
    00:20:23.512                             : en:Chapter 08
    00:21:59.524                             : en:Chapter 09
    00:26:33.464                             : en:Chapter 10
    00:31:39.770                             : en:Chapter 11
    00:35:15.944                             : en:Chapter 12
    00:38:59.375                             : en:Chapter 13
    00:41:48.919                             : en:Chapter 14
    00:46:15.226                             : en:Chapter 15
    00:50:29.021                             : en:Chapter 16
    00:53:55.060                             : en:Chapter 17
    00:56:26.419                             : en:Chapter 18
    00:58:24.703                             : en:Chapter 19
    01:00:25.031                             : en:Chapter 20
    01:03:58.285                             : en:Chapter 21
    01:07:56.481                             : en:Chapter 22
    01:09:37.456                             : en:Chapter 23
    01:13:26.810                             : en:Chapter 24
    01:17:48.112                             : en:Chapter 25
    01:20:55.007                             : en:Chapter 26
    01:24:04.905                             : en:Chapter 27
    01:26:20.332                             : en:Chapter 28
    01:29:27.894                             : en:Chapter 29
    01:31:40.276                             : en:Chapter 30
    01:33:25.339                             : en:Chapter 31
    01:35:28.295                             : en:Chapter 32
    01:38:53.541                             : en:Chapter 33
    01:42:15.159                             : en:Chapter 34
    01:45:18.008                             : en:Chapter 35
    01:48:59.562                             : en:Chapter 36

  • Peso: CMRG

Sinopsis

Ryan Reynolds regresa en el papel principal de Wade Wilson, alias Deadpool, en peliculas 1 link mega,Deadpool 2“, un psicodrama sombrío y desgarrador que seguramente confundirá y enfurecerá a los fanáticos del original. El primer ” Deadpool ” , dirigido por Tim Miller , se distinguió por su ritmo de tres bromas por minuto y su renuencia a tomar en serio los clichés usuales del origen del superhéroe. Esta película del especialista se convirtió en el director David Leitch (que debutó detrás de la cámara con ” John Wick”“) comienza con un golpe literal, con nuestro héroe misteriosamente deprimido que se inmola encima de un lecho de muerte de botes de combustible explosivos, luego se abre camino hacia atrás para detallar el trauma que lo hizo estar tan triste como para suicidarse. Francamente, me quedé atónito de que Leitch, Reynolds y la compañía tuvo el valor de matar a un sabio bancarrota en los primeros cinco minutos de su película, y luego dedicaron el resto de su tiempo a apoyar los intentos de los personajes de afligirse y seguir adelante con sus vidas, sus luchas capturadas en blanqueado imágenes más comúnmente asociadas con las películas de DC. El pico emocional es una larga secuencia de la viuda de Wade Vanessa ( Morena Baccarin) tomando el uniforme rojo ahora inútil del héroe de una percha en el armario, inhalando el olor de su compañero y estallando en llanto mientras la banda sonora toca una clave menor a cappella de “More Than a Feeling” de Boston

Ficha técnica

Video trailer de la película

Enlaces de descarga

Rip de Bluray

Descargar Deadpool 2 (2018) WEBDL-1080p Latino




Aportes de DPeliculasHDmega la pass es:dpeliculashdmega.org Aportes de CinemaniaHD la pass es:cinemaniahdd.com
Guardado en : Acción , Ciencia ficción , Comedia

Películas relacionadas

  • La balada de Buster Scruggs (2018) NF 1080p Latino

    2018
    La balada de Buster Scruggs (2018) NF 1080p Latino

    0.0 2h 12m 2018

    Los siempre singulares Joel y Ethan Cohen escriben y dirigen esta antología de seis historias del Salvaje...

    Director: Joel Coen

    Género: Comedia

    Actores: Zoe Kazan

  • Cambio de princesa (2018) NF 1080p Latino

    2018
    Cambio de princesa (2018) NF 1080p Latino

    0.0 1h 41m 2018

    Una repostera de Chicago y una futura princesa descubren que parecen gemelas, así que idean un plan...

    Director: Mike Rohl

    Género: Comedia

    Actores: Vanessa Hudgens

  • La pequeña brujita (2018) AMZN 1080p Latino

    2018
    La pequeña brujita (2018) AMZN 1080p Latino

    5.0 1h 43m 2018

    Descargar La pequeña brujita (2018) AMZN 1080p Latino, Mega, Google Drive. La pequeña bruja sólo tiene...

    Director: Mike Schaerer

    Género: Comedia

    Actores: Verena Bosshard

  • El Justiciero 2 (2018) Full 1080p Latino

    2018
    El Justiciero 2 (2018) Full 1080p Latino

    5.0 2h 0m 2018

    Descargar El Justiciero 2 (2018) Full 1080p Latino, Mega, Google Drive. Robert McCall (Denzel Washington)...

    Director: Donald Sparks

    Género: Acción

    Actores: Wesley Pereira

Comentarios 0