×

¿Problemas para descargar con Mozilla, EDGE? Deshabilita la opción "Abrir vinculos en una pestaña nueva" tal como lo muestra ésta imagen.

Deadly Influencer (2019) WEB-DL 1080p Latino

772 vistas

Información de Deadly Influencer (2019) WEB-DL 1080p Latino

Datos de la película

  • Calidad: WEBDL
  • Audio: Se especifica abajo de la Sinopsis
  • Subtitulos: No
  • Resolución: 1920x1080
  • Formato: MKV
  • Codec: H.264
  • Encoder: cinemaniahdd
  • Mediainfo: Clic para Mostrar Datos Ver
  • Deadly Influencer (2019) WEB-DL 1080p Latino.mkv
    Format                      : Matroska
    Format version              : Version 4
    File size                   : 3.43 GiB
    Duration                    : 1 h 25 min
    Overall bit rate            : 5 730 kb/s
    Movie name                  : Deadly Influencer (2019) - CinemaniaHDD.Net
    Encoded date                : UTC 2019-11-29 05:44:37
    Writing application         : mkvmerge v38.0.0 ('The Silent Type') 64-bit
    Writing library             : libebml v1.3.9 + libmatroska v1.5.2

    Video
    ID                          : 1
    Format                      : AVC
    Format/Info                 : Advanced Video Codec
    Format profile              : High@L4
    Format settings             : CABAC / 4 Ref Frames
    Format settings, CABAC      : Yes
    Format settings, ReFrames   : 4 frames
    Codec ID                    : V_MPEG4/ISO/AVC
    Duration                    : 1 h 25 min
    Bit rate                    : 5 216 kb/s
    Width                       : 1 910 pixels
    Height                      : 1 070 pixels
    Display aspect ratio        : 16:9
    Frame rate mode             : Constant
    Frame rate                  : 23.976 FPS
    Color space                 : YUV
    Chroma subsampling          : 4:2:0
    Bit depth                   : 8 bits
    Scan type                   : Progressive
    Bits/(Pixel*Frame)          : 0.106
    Stream size                 : 3.12 GiB (91%)
    Title                       : CinemaniaHDD.Net
    Language                    : English
    Default                     : Yes
    Forced                      : No
    Color range                 : Limited
    Color primaries             : BT.709
    Transfer characteristics    : BT.709
    Matrix coefficients         : BT.709

    Audio #1
    ID                          : 2
    Format                      : AC-3
    Format/Info                 : Audio Coding 3
    Commercial name             : Dolby Digital
    Codec ID                    : A_AC3
    Duration                    : 1 h 25 min
    Bit rate mode               : Constant
    Bit rate                    : 256 kb/s
    Channel(s)                  : 2 channels
    Channel layout              : L R
    Sampling rate               : 48.0 kHz
    Frame rate                  : 31.250 FPS (1536 SPF)
    Bit depth                   : 16 bits
    Compression mode            : Lossy
    Stream size                 : 157 MiB (4%)
    Title                       : Español latino [CinemaniaHDD]
    Language                    : Spanish
    Service kind                : Complete Main
    Default                     : Yes
    Forced                      : No

    Audio #2
    ID                          : 3
    Format                      : AC-3
    Format/Info                 : Audio Coding 3
    Commercial name             : Dolby Digital
    Codec ID                    : A_AC3
    Duration                    : 1 h 25 min
    Bit rate mode               : Constant
    Bit rate                    : 256 kb/s
    Channel(s)                  : 2 channels
    Channel layout              : L R
    Sampling rate               : 48.0 kHz
    Frame rate                  : 31.250 FPS (1536 SPF)
    Bit depth                   : 16 bits
    Compression mode            : Lossy
    Stream size                 : 157 MiB (4%)
    Title                       : Inglés [CinemaniaHDD]
    Language                    : English
    Service kind                : Complete Main
    Default                     : No
    Forced                      : No

     

  • Peso: 3.43 GiB

Sinopsis

Una joven comete asesinato para mantener las carreras de redes sociales de sus compañeros bajo su pulgar. Después de matar a una amiga popular, ella mira a una nueva niña, pero la madre de la niña sospecha la verdad y luchará para proteger a su hija.

Español Latino AC3 2.0 Capturado – Ingles AC3 2.0 WEB-DL

Ficha técnica

  • Titulo original: Deadly Influencer
  • Fecha de lanzamiento: 08-08-2019 (Canada)
  • Género: Crimen, Suspenso

Video trailer de la película

Enlaces de descarga

Rip de Bluray

Descargar Deadly Influencer (2019) WEB-DL 1080p Latino




Aportes de DPeliculasHDmega la pass es:dpeliculashdmega.org Aportes de CinemaniaHD la pass es:cinemaniahdd.com
Guardado en : Crimen , Suspenso

Películas relacionadas

descargar Deadly Influencer (2019) WEB-DL 1080p Latino WEBDL 1080p gratis, Deadly Influencer (2019) WEB-DL 1080p Latino WEBDL mega 1 link, Deadly Influencer (2019) WEB-DL 1080p Latino WEBDL pelicula completa, descargar Deadly Influencer (2019) WEB-DL 1080p Latino WEBDL gratis en mega.

Deadly Influencer (2019) WEB-DL 1080p Latino pelicula full hd, Deadly Influencer (2019) WEB-DL 1080p Latino mega latino, Deadly Influencer (2019) WEB-DL 1080p Latino 4k latino, Deadly Influencer (2019) WEB-DL 1080p Latino pelicula completa, Deadly Influencer (2019) WEB-DL 1080p Latino descargar gratis, descargar Deadly Influencer (2019) WEB-DL 1080p Latino pelicula latino, Deadly Influencer (2019) WEB-DL 1080p Latino 1 link mega, Deadly Influencer (2019) WEB-DL 1080p Latino 1 link google drive, Deadly Influencer (2019) WEB-DL 1080p Latino hd 1080p latino.
Comentarios 0