×

¿Problemas para descargar con Mozilla, EDGE? Deshabilita la opción "Abrir vinculos en una pestaña nueva" tal como lo muestra ésta imagen.

Dead Water (2019) Web-DL 1080p Latino

1.033 vistas

Información de Dead Water (2019) Web-DL 1080p Latino

Datos de la película

  • Calidad: WEBDL
  • Audio: Se especifica abajo de la Sinopsis
  • Subtitulos: Español Latino SRT - Ingles SRT
  • Resolución: 1908x792p
  • Formato: MKV
  • Codec: H.264
  • Encoder: CinemaniaHD
  • Mediainfo: Clic para Mostrar Datos Ver
  • Dead Water (2019) Web-DL 1080p Latino-CMHDD.mkv
    Format                      : Matroska
    Format version              : Version 4
    File size                   : 3.26 GiB
    Duration                    : 1 h 29 min
    Overall bit rate            : 5 183 kb/s
    Movie name                  : CinemaniaHDD.Net
    Encoded date                : UTC 2020-02-18 20:11:28
    Writing application         : mkvmerge v42.0.0 ('Overtime') 64-bit
    Writing library             : libebml v1.3.10 + libmatroska v1.5.2
    Attachments                 : CINEMANIAHD.png

    Video
    ID                          : 1
    Format                      : AVC
    Format/Info                 : Advanced Video Codec
    Format profile              : High@L4
    Format settings             : CABAC / 5 Ref Frames
    Format settings, CABAC      : Yes
    Format settings, ReFrames   : 5 frames
    Codec ID                    : V_MPEG4/ISO/AVC
    Duration                    : 1 h 29 min
    Bit rate                    : 4 540 kb/s
    Width                       : 1 908 pixels
    Height                      : 792 pixels
    Display aspect ratio        : 2.40:1
    Frame rate mode             : Constant
    Frame rate                  : 23.976 (24000/1001) FPS
    Color space                 : YUV
    Chroma subsampling          : 4:2:0
    Bit depth                   : 8 bits
    Scan type                   : Progressive
    Bits/(Pixel*Frame)          : 0.125
    Stream size                 : 2.85 GiB (88%)
    Title                       : HD1080p [Web]
    Default                     : Yes
    Forced                      : Yes
    Color range                 : Limited
    Color primaries             : BT.709
    Transfer characteristics    : BT.709
    Matrix coefficients         : BT.709

    Audio #1
    ID                          : 2
    Format                      : AC-3
    Format/Info                 : Audio Coding 3
    Commercial name             : Dolby Digital
    Codec ID                    : A_AC3
    Duration                    : 1 h 29 min
    Bit rate mode               : Constant
    Bit rate                    : 256 kb/s
    Channel(s)                  : 2 channels
    Channel layout              : L R
    Sampling rate               : 48.0 kHz
    Frame rate                  : 31.250 FPS (1536 SPF)
    Bit depth                   : 16 bits
    Compression mode            : Lossy
    Delay relative to video     : -42 ms
    Stream size                 : 165 MiB (5%)
    Title                       : AC3_2.0_Capt_Esp
    Language                    : Spanish
    Service kind                : Complete Main
    Default                     : Yes
    Forced                      : Yes

    Audio #2
    ID                          : 3
    Format                      : AC-3
    Format/Info                 : Audio Coding 3
    Commercial name             : Dolby Digital
    Codec ID                    : A_AC3
    Duration                    : 1 h 29 min
    Bit rate mode               : Constant
    Bit rate                    : 384 kb/s
    Channel(s)                  : 6 channels
    Channel layout              : L R C LFE Ls Rs
    Sampling rate               : 48.0 kHz
    Frame rate                  : 31.250 FPS (1536 SPF)
    Bit depth                   : 16 bits
    Compression mode            : Lossy
    Delay relative to video     : -42 ms
    Stream size                 : 247 MiB (7%)
    Title                       : AC3_5.1_Web_Eng
    Language                    : English
    Service kind                : Complete Main
    Default                     : No
    Forced                      : No

    Text #1
    ID                          : 4
    Format                      : UTF-8
    Codec ID                    : S_TEXT/UTF8
    Codec ID/Info               : UTF-8 Plain Text
    Duration                    : 1 h 19 min
    Bit rate                    : 50 b/s
    Count of elements           : 962
    Stream size                 : 29.6 KiB (0%)
    Title                       : Sub_Esp
    Language                    : Spanish
    Default                     : No
    Forced                      : No

    Text #2
    ID                          : 5
    Format                      : UTF-8
    Codec ID                    : S_TEXT/UTF8
    Codec ID/Info               : UTF-8 Plain Text
    Duration                    : 1 h 25 min
    Bit rate                    : 73 b/s
    Count of elements           : 1240
    Stream size                 : 46.0 KiB (0%)
    Title                       : Sub_Eng
    Language                    : English
    Default                     : No
    Forced                      : No

    Menu
    00:00:00.000                : en:1
    00:03:10.000                : en:2
    00:13:23.000                : en:3
    00:23:04.000                : en:4
    00:32:44.000                : en:5
    00:42:19.000                : en:6
    00:49:20.000                : en:7
    00:59:09.000                : en:8
    01:09:39.000                : en:9
    01:17:48.000                : en:10
    01:25:39.000                : en:11

  • Peso: 3.26 GiB

Sinopsis

Descargar Dead Water (2019) Web-DL 1080p Latino. Cuando un viaje de relax se convierte en una trampa mortal, un exmarine se ve obligado a arriesgar su vida para salvar a su mujer y a un grupo compuesto por sus mejores amigos de una banda de piratas modernos, todo ello mientras trata de dejar atrás los recuerdos bélicos que le atormentan.

Audio Español Latino AC3 2.0 Capturado – Ingles AC3 5.1 Web-DL

Ficha técnica

  • Titulo original: Dead Water
  • Fecha de lanzamiento: 23-07-2019 (United States of America)
  • Director: Chris Helton
  • Género: Suspenso

Video trailer de la película

Enlaces de descarga

Rip de Bluray

Descargar Dead Water (2019) Web-DL 1080p Latino




Aportes de DPeliculasHDmega la pass es:dpeliculashdmega.org Aportes de CinemaniaHD la pass es:cinemaniahdd.com
Guardado en : Suspenso

Películas relacionadas

  • Invitacion Al Infierno (2022) MA WEB-DL 1080p Latino

    Invitacion Al Infierno (2022) MA WEB-DL 1080p Latino

    2022
    Invitacion Al Infierno (2022) MA WEB-DL 1080p Latino

    1h 45m 2022

    Descargar Invitacion Al Infierno (2022) MA WEB-DL 1080p Latino. Tras la muerte de su madre y quedarse...

    Director: Jessica M. Thompson

    Género: Suspenso

    Actores: Virág Bárány

  • Wire Room (2022) HD 1080p Latino

    Wire Room (2022) HD 1080p Latino

    2022
    Wire Room (2022) HD 1080p Latino

    1h 37m 2022

    Descargar Wire Room (2022) HD 1080p Latino. Mientras está de servicio en la sala de cables, un agente...

    Director: Matt Eskandari

    Género: Acción

    Actores: Texas Battle

  • Wire Room (2022) PLACEBO Full HD 1080p Latino

    Wire Room (2022) PLACEBO Full HD 1080p Latino

    2022
    Wire Room (2022) PLACEBO Full HD 1080p Latino

    1h 37m 2022

    Descargar Wire Room (2022) PLACEBO Full HD 1080p Latino. Mientras está de servicio en la sala de cables,...

    Director: Matt Eskandari

    Género: Acción

    Actores: Texas Battle

  • Wire Room (2022) REMUX 1080p Latino

    Wire Room (2022) REMUX 1080p Latino

    2022
    Wire Room (2022) REMUX 1080p Latino

    1h 37m 2022

    Descargar Wire Room (2022) REMUX 1080p Latino. Mientras está de servicio en la sala de cables, un agente...

    Director: Matt Eskandari

    Género: Acción

    Actores: Texas Battle

descargar Dead Water (2019) Web-DL 1080p Latino WEBDL 1080p gratis, Dead Water (2019) Web-DL 1080p Latino WEBDL mega 1 link, Dead Water (2019) Web-DL 1080p Latino WEBDL pelicula completa, descargar Dead Water (2019) Web-DL 1080p Latino WEBDL gratis en mega.

Dead Water (2019) Web-DL 1080p Latino pelicula full hd, Dead Water (2019) Web-DL 1080p Latino mega latino, Dead Water (2019) Web-DL 1080p Latino 4k latino, Dead Water (2019) Web-DL 1080p Latino pelicula completa, Dead Water (2019) Web-DL 1080p Latino descargar gratis, descargar Dead Water (2019) Web-DL 1080p Latino pelicula latino, Dead Water (2019) Web-DL 1080p Latino 1 link mega, Dead Water (2019) Web-DL 1080p Latino 1 link google drive, Dead Water (2019) Web-DL 1080p Latino hd 1080p latino.
Comentarios 0