×

¿Problemas para descargar con Mozilla, EDGE? Deshabilita la opción "Abrir vinculos en una pestaña nueva" tal como lo muestra ésta imagen.

Misión: Imposible Sentencia mortal parte uno + Bonus (2023) REMUX 1080p Latino

192 vistas

Información de Misión: Imposible Sentencia mortal parte uno + Bonus (2023) REMUX 1080p Latino

Datos de la película

  • Calidad: Full 1080p
  • Audio: Se especifica abajo de la Sinopsis
  • Subtitulos: Español Latino PGS - Ingles PGS
  • Resolución: 1920x1080p
  • Formato: MKV
  • Codec: H.264
  • Encoder: CinefiloCool
  • Mediainfo: Clic para Mostrar Datos Ver
  • Mission.Impossible.Dead.Reckoning.Part.One.2023.REMUX.1080p.Latino-CC@CMHDD.mkv
    Format                      : Matroska
    Format version              : Version 4
    File size                   : 34.8 GiB
    Duration                    : 2 h 46 min
    Overall bit rate mode       : Variable
    Overall bit rate            : 29.9 Mb/s
    Movie name                  : Mission: Impossible - Dead Reckoning Part One (2023) CinemaniaHDD.Net
    Encoded date                : UTC 2023-10-25 19:34:11
    Writing application         : mkvmerge v56.1.0 ('My Friend') 64-bit
    Writing library             : libebml v1.4.2 + libmatroska v1.6.4
    Cover                       : Yes
    Attachments                 : CINEMANIAHD.png / cover.jpg

    Video
    ID                          : 1
    ID in the original source m : 4113 (0x1011)
    Format                      : AVC
    Format/Info                 : Advanced Video Codec
    Format profile              : High@L4.1
    Format settings             : CABAC / 4 Ref Frames
    Format settings, CABAC      : Yes
    Format settings, Reference  : 4 frames
    Codec ID                    : V_MPEG4/ISO/AVC
    Duration                    : 2 h 43 min
    Bit rate mode               : Variable
    Bit rate                    : 25.5 Mb/s
    Maximum bit rate            : 33.5 Mb/s
    Width                       : 1 920 pixels
    Height                      : 1 080 pixels
    Display aspect ratio        : 16:9
    Frame rate mode             : Constant
    Frame rate                  : 23.976 (24000/1001) FPS
    Color space                 : YUV
    Chroma subsampling          : 4:2:0
    Bit depth                   : 8 bits
    Scan type                   : Progressive
    Bits/(Pixel*Frame)          : 0.512
    Stream size                 : 29.1 GiB (83%)
    Title                       : REMUX HD1080p [CinemaniaHDD]
    Default                     : Yes
    Forced                      : Yes
    Original source medium      : Blu-ray

    Audio #1
    ID                          : 2
    ID in the original source m : 4354 (0x1102)
    Format                      : AC-3
    Format/Info                 : Audio Coding 3
    Commercial name             : Dolby Digital
    Codec ID                    : A_AC3
    Duration                    : 2 h 43 min
    Bit rate mode               : Constant
    Bit rate                    : 640 kb/s
    Channel(s)                  : 6 channels
    Channel layout              : L R C LFE Ls Rs
    Sampling rate               : 48.0 kHz
    Frame rate                  : 31.250 FPS (1536 SPF)
    Compression mode            : Lossy
    Stream size                 : 748 MiB (2%)
    Title                       : Español Latino [CinemaniaHDD]
    Language                    : Spanish
    Service kind                : Complete Main
    Default                     : Yes
    Forced                      : Yes
    Original source medium      : Blu-ray

    Audio #2
    ID                          : 3
    Format                      : E-AC-3
    Format/Info                 : Enhanced AC-3
    Commercial name             : Dolby Digital Plus
    Codec ID                    : A_EAC3
    Duration                    : 2 h 46 min
    Bit rate mode               : Constant
    Bit rate                    : 640 kb/s
    Channel(s)                  : 6 channels
    Channel layout              : L R C LFE Ls Rs
    Sampling rate               : 48.0 kHz
    Frame rate                  : 31.250 FPS (1536 SPF)
    Compression mode            : Lossy
    Stream size                 : 763 MiB (2%)
    Title                       : Español Latino DDP [CinemaniaHDD]
    Language                    : Spanish
    Service kind                : Complete Main
    Default                     : No
    Forced                      : No

    Audio #3
    ID                          : 4
    ID in the original source m : 4352 (0x1100)
    Format                      : AC-3
    Format/Info                 : Audio Coding 3
    Commercial name             : Dolby Digital
    Codec ID                    : A_AC3
    Duration                    : 2 h 43 min
    Bit rate mode               : Constant
    Bit rate                    : 448 kb/s
    Channel(s)                  : 6 channels
    Channel layout              : L R C LFE Ls Rs
    Sampling rate               : 48.0 kHz
    Frame rate                  : 31.250 FPS (1536 SPF)
    Compression mode            : Lossy
    Stream size                 : 524 MiB (1%)
    Title                       : Ingles AC3 [CinemaniaHDD]
    Language                    : English
    Service kind                : Complete Main
    Default                     : No
    Forced                      : No
    Original source medium      : Blu-ray

    Audio #4
    ID                          : 5
    ID in the original source m : 4352 (0x1100)
    Format                      : MLP FBA 16-ch
    Format/Info                 : Meridian Lossless Packing FBA with 16-channel presentation
    Commercial name             : Dolby TrueHD with Dolby Atmos
    Codec ID                    : A_TRUEHD
    Duration                    : 2 h 43 min
    Bit rate mode               : Variable
    Bit rate                    : 3 123 kb/s
    Maximum bit rate            : 5 211 kb/s
    Channel(s)                  : 8 channels
    Channel layout              : L R C LFE Ls Rs Lb Rb
    Sampling rate               : 48.0 kHz
    Frame rate                  : 1 200.000 FPS (40 SPF)
    Compression mode            : Lossless
    Stream size                 : 3.57 GiB (10%)
    Title                       : Ingles TrueHD [CinemaniaHDD]
    Language                    : English
    Default                     : No
    Forced                      : No
    Original source medium      : Blu-ray
    Number of dynamic objects   : 11
    Bed channel count           : 1 channel
    Bed channel configuration   : LFE

    Text #1
    ID                          : 6
    Format                      : PGS
    Muxing mode                 : zlib
    Codec ID                    : S_HDMV/PGS
    Codec ID/Info               : Picture based subtitle format used on BDs/HD-DVDs
    Duration                    : 2 h 42 min
    Bit rate                    : 897 b/s
    Count of elements           : 116
    Stream size                 : 1.05 MiB (0%)
    Title                       : Forzados-PGS [CinemaniaHDD]
    Language                    : Spanish
    Default                     : No
    Forced                      : No

    Text #2
    ID                          : 7
    ID in the original source m : 4611 (0x1203)
    Format                      : PGS
    Muxing mode                 : zlib
    Codec ID                    : S_HDMV/PGS
    Codec ID/Info               : Picture based subtitle format used on BDs/HD-DVDs
    Duration                    : 2 h 42 min
    Bit rate                    : 32.3 kb/s
    Count of elements           : 3634
    Stream size                 : 37.6 MiB (0%)
    Title                       : Español-PGS [CinemaniaHDD]
    Language                    : Spanish
    Default                     : No
    Forced                      : No
    Original source medium      : Blu-ray

    Text #3
    ID                          : 8
    ID in the original source m : 4608 (0x1200)
    Format                      : PGS
    Muxing mode                 : zlib
    Codec ID                    : S_HDMV/PGS
    Codec ID/Info               : Picture based subtitle format used on BDs/HD-DVDs
    Duration                    : 2 h 42 min
    Bit rate                    : 33.4 kb/s
    Count of elements           : 3576
    Stream size                 : 38.8 MiB (0%)
    Title                       : English-PGS [CinemaniaHDD]
    Language                    : English
    Default                     : No
    Forced                      : No
    Original source medium      : Blu-ray

    Text #4
    ID                          : 9
    ID in the original source m : 4620 (0x120C)
    Format                      : PGS
    Muxing mode                 : zlib
    Codec ID                    : S_HDMV/PGS
    Codec ID/Info               : Picture based subtitle format used on BDs/HD-DVDs
    Duration                    : 2 h 43 min
    Bit rate                    : 71.2 kb/s
    Count of elements           : 6029
    Stream size                 : 83.2 MiB (0%)
    Title                       : Comentarios-PGS [CinemaniaHDD]
    Language                    : Spanish
    Default                     : No
    Forced                      : No
    Original source medium      : Blu-ray

    Text #5
    ID                          : 10
    ID in the original source m : 4619 (0x120B)
    Format                      : PGS
    Muxing mode                 : zlib
    Codec ID                    : S_HDMV/PGS
    Codec ID/Info               : Picture based subtitle format used on BDs/HD-DVDs
    Duration                    : 2 h 43 min
    Bit rate                    : 83.8 kb/s
    Count of elements           : 6558
    Stream size                 : 97.9 MiB (0%)
    Title                       : Commentary-PGS [CinemaniaHDD]
    Language                    : English
    Default                     : No
    Forced                      : No
    Original source medium      : Blu-ray

    Text #6
    ID                          : 11
    Format                      : UTF-8
    Codec ID                    : S_TEXT/UTF8
    Codec ID/Info               : UTF-8 Plain Text
    Duration                    : 2 h 35 min
    Bit rate                    : 1 b/s
    Count of elements           : 60
    Stream size                 : 1.47 KiB (0%)
    Title                       : Forzados-SRT [CinemaniaHDD]
    Default                     : Yes
    Forced                      : Yes

    Text #7
    ID                          : 12
    Format                      : UTF-8
    Codec ID                    : S_TEXT/UTF8
    Codec ID/Info               : UTF-8 Plain Text
    Duration                    : 2 h 35 min
    Bit rate                    : 50 b/s
    Count of elements           : 1815
    Stream size                 : 57.7 KiB (0%)
    Title                       : Español-SRT [CinemaniaHDD]
    Language                    : Spanish
    Default                     : No
    Forced                      : No

    Menu
    00:00:00.000                : Chapter 01
    00:07:23.776                : Chapter 02
    00:15:48.322                : Chapter 03
    00:28:03.556                : Chapter 04
    00:32:36.287                : Chapter 05
    00:45:36.608                : Chapter 06
    00:55:57.270                : Chapter 07
    01:08:52.670                : Chapter 08
    01:17:42.824                : Chapter 09
    01:31:15.845                : Chapter 10
    01:41:37.591                : Chapter 11
    01:51:37.732                : Chapter 12
    02:01:39.583                : Chapter 13
    02:14:11.043                : Chapter 14
    02:21:30.565                : Chapter 15
    02:35:25.816                : Chapter 16

  • Peso: 34.8 GiB + 3.98 GiB (Bonus)

Sinopsis

Descargar Misión: Imposible Sentencia mortal parte uno + Bonus (2023) REMUX 1080p Latino. Ethan Hunt y su equipo del FMI, se embarcan en su misión más peligrosa hasta la fecha: localizar, antes de que caiga en las manos equivocadas, una nueva y terrorífica arma que amenaza a toda la humanidad. En esta tesitura, y con unas fuerzas oscuras del pasado de Ethan acechando, comienza una carrera mortal alrededor del mundo en la que está en juego el control del futuro y el destino del planeta. Enfrentado a un enemigo misterioso y todopoderoso, Ethan se ve obligado a considerar que nada puede anteponerse a su misión, ni siquiera las vidas de aquellos que más le importan.

Audio Español Latino EAC3 5.1 WebDL + AC3 5.1 Bluray – Ingles TrueHD 7.1 + AC3 5.1  Bluray
Incluye Extras Del Bonus Disc!! (6/6) 😀

Nota: Extras solo V.O.S.E. (Subtitulos)

Ficha técnica

Video trailer de la película

Enlaces de descarga

Rip de Bluray

Descargar Misión: Imposible Sentencia mortal parte uno + Bonus (2023) REMUX 1080p Latino




Aportes de DPeliculasHDmega la pass es:dpeliculashdmega.org Aportes de CinemaniaHD la pass es:cinemaniahdd.com Aportes recientes:cinemaniahdd.net
Guardado en : Acción , Remux , Suspenso

Películas relacionadas

descargar Misión: Imposible Sentencia mortal parte uno + Bonus (2023) REMUX 1080p Latino Full 1080p 1080p gratis, Misión: Imposible Sentencia mortal parte uno + Bonus (2023) REMUX 1080p Latino Full 1080p mega 1 link, Misión: Imposible Sentencia mortal parte uno + Bonus (2023) REMUX 1080p Latino Full 1080p pelicula completa, descargar Misión: Imposible Sentencia mortal parte uno + Bonus (2023) REMUX 1080p Latino Full 1080p gratis en mega.

Misión: Imposible Sentencia mortal parte uno + Bonus (2023) REMUX 1080p Latino pelicula full hd, Misión: Imposible Sentencia mortal parte uno + Bonus (2023) REMUX 1080p Latino mega latino, Misión: Imposible Sentencia mortal parte uno + Bonus (2023) REMUX 1080p Latino 4k latino, Misión: Imposible Sentencia mortal parte uno + Bonus (2023) REMUX 1080p Latino pelicula completa, Misión: Imposible Sentencia mortal parte uno + Bonus (2023) REMUX 1080p Latino descargar gratis, descargar Misión: Imposible Sentencia mortal parte uno + Bonus (2023) REMUX 1080p Latino pelicula latino, Misión: Imposible Sentencia mortal parte uno + Bonus (2023) REMUX 1080p Latino 1 link mega, Misión: Imposible Sentencia mortal parte uno + Bonus (2023) REMUX 1080p Latino 1 link google drive, Misión: Imposible Sentencia mortal parte uno + Bonus (2023) REMUX 1080p Latino hd 1080p latino.
Comentarios 0